  0
SECTION
  2
HEADER
  9
$ACADVER
  1
AC1015
  9
$ACADMAINTVER
 70
     6
  9
$DWGCODEPAGE
  3
DOS932
  9
$INSBASE
 10
0.0
 20
0.0
 30
0.0
  9
$EXTMIN
 10
0.0
 20
0.0
 30
0.0
  9
$EXTMAX
 10
420.0
 20
297.0
 30
0.0
  9
$LIMMIN
 10
0.0
 20
0.0
  9
$LIMMAX
 10
420.0
 20
297.0
  9
$ORTHOMODE
 70
     0
  9
$REGENMODE
 70
     1
  9
$FILLMODE
 70
     1
  9
$QTEXTMODE
 70
     0
  9
$MIRRTEXT
 70
     1
  9
$LTSCALE
 40
1.0
  9
$ATTMODE
 70
     1
  9
$TEXTSIZE
 40
3.5
  9
$TRACEWID
 40
1.0
  9
$TEXTSTYLE
  7
Standard
  9
$CLAYER
  8
0
  9
$CELTYPE
  6
ByLayer
  9
$CECOLOR
 62
   256
  9
$CELTSCALE
 40
1.0
  9
$DISPSILH
 70
     0
  9
$DIMSCALE
 40
1.0
  9
$DIMASZ
 40
3.302
  9
$DIMEXO
 40
1.0
  9
$DIMDLI
 40
3.75
  9
$DIMRND
 40
0.0
  9
$DIMDLE
 40
0.0
  9
$DIMEXE
 40
1.0
  9
$DIMTP
 40
0.0
  9
$DIMTM
 40
0.0
  9
$DIMTXT
 40
3.5
  9
$DIMCEN
 40
2.5
  9
$DIMTSZ
 40
0.0
  9
$DIMTOL
 70
     0
  9
$DIMLIM
 70
     0
  9
$DIMTIH
 70
     1
  9
$DIMTOH
 70
     1
  9
$DIMSE1
 70
     0
  9
$DIMSE2
 70
     0
  9
$DIMTAD
 70
     1
  9
$DIMZIN
 70
     1
  9
$DIMBLK
  1

  9
$DIMASO
 70
     1
  9
$DIMSHO
 70
     1
  9
$DIMPOST
  1

  9
$DIMAPOST
  1

  9
$DIMALT
 70
     0
  9
$DIMALTD
 70
     3
  9
$DIMALTF
 40
0.0393700787
  9
$DIMLFAC
 40
2.0
  9
$DIMTOFL
 70
     1
  9
$DIMTVP
 40
0.0
  9
$DIMTIX
 70
     0
  9
$DIMSOXD
 70
     0
  9
$DIMSAH
 70
     0
  9
$DIMBLK1
  1

  9
$DIMBLK2
  1

  9
$DIMSTYLE
  2
ISO-25
  9
$DIMCLRD
 70
     0
  9
$DIMCLRE
 70
     0
  9
$DIMCLRT
 70
     0
  9
$DIMTFAC
 40
1.0
  9
$DIMGAP
 40
1.524
  9
$DIMJUST
 70
     0
  9
$DIMSD1
 70
     0
  9
$DIMSD2
 70
     0
  9
$DIMTOLJ
 70
     0
  9
$DIMTZIN
 70
     1
  9
$DIMALTZ
 70
     0
  9
$DIMALTTZ
 70
     0
  9
$DIMUPT
 70
     0
  9
$DIMDEC
 70
     0
  9
$DIMTDEC
 70
     1
  9
$DIMALTU
 70
     2
  9
$DIMALTTD
 70
     3
  9
$DIMTXSTY
  7
Standard
  9
$DIMAUNIT
 70
     0
  9
$DIMADEC
 70
     0
  9
$DIMALTRND
 40
0.0
  9
$DIMAZIN
 70
     0
  9
$DIMDSEP
 70
    44
  9
$DIMATFIT
 70
     3
  9
$DIMFRAC
 70
     0
  9
$DIMLDRBLK
  1

  9
$DIMLUNIT
 70
     2
  9
$DIMLWD
 70
    -2
  9
$DIMLWE
 70
    -2
  9
$DIMTMOVE
 70
     0
  9
$LUNITS
 70
     2
  9
$LUPREC
 70
     4
  9
$SKETCHINC
 40
1.0
  9
$FILLETRAD
 40
10.0
  9
$AUNITS
 70
     0
  9
$AUPREC
 70
     0
  9
$MENU
  1
.
  9
$ELEVATION
 40
0.0
  9
$PELEVATION
 40
0.0
  9
$THICKNESS
 40
0.0
  9
$LIMCHECK
 70
     0
  9
$CHAMFERA
 40
0.0
  9
$CHAMFERB
 40
0.0
  9
$CHAMFERC
 40
0.0
  9
$CHAMFERD
 40
0.0
  9
$SKPOLY
 70
     0
  9
$TDCREATE
 40
2459188.479069421
  9
$TDUCREATE
 40
2459188.104069421
  9
$TDUPDATE
 40
2459188.479071956
  9
$TDUUPDATE
 40
2459188.104071956
  9
$TDINDWG
 40
0.0000000116
  9
$TDUSRTIMER
 40
0.0000000116
  9
$USRTIMER
 70
     1
  9
$ANGBASE
 50
0.0
  9
$ANGDIR
 70
     0
  9
$PDMODE
 70
     0
  9
$PDSIZE
 40
-1.0
  9
$PLINEWID
 40
0.0
  9
$SPLFRAME
 70
     0
  9
$SPLINETYPE
 70
     6
  9
$SPLINESEGS
 70
     8
  9
$HANDSEED
  5
2B9
  9
$SURFTAB1
 70
     6
  9
$SURFTAB2
 70
     6
  9
$SURFTYPE
 70
     6
  9
$SURFU
 70
     6
  9
$SURFV
 70
     6
  9
$UCSBASE
  2

  9
$UCSNAME
  2

  9
$UCSORG
 10
0.0
 20
0.0
 30
0.0
  9
$UCSXDIR
 10
1.0
 20
0.0
 30
0.0
  9
$UCSYDIR
 10
0.0
 20
1.0
 30
0.0
  9
$UCSORTHOREF
  2

  9
$UCSORTHOVIEW
 70
     0
  9
$UCSORGTOP
 10
0.0
 20
0.0
 30
0.0
  9
$UCSORGBOTTOM
 10
0.0
 20
0.0
 30
0.0
  9
$UCSORGLEFT
 10
0.0
 20
0.0
 30
0.0
  9
$UCSORGRIGHT
 10
0.0
 20
0.0
 30
0.0
  9
$UCSORGFRONT
 10
0.0
 20
0.0
 30
0.0
  9
$UCSORGBACK
 10
0.0
 20
0.0
 30
0.0
  9
$PUCSBASE
  2

  9
$PUCSNAME
  2

  9
$PUCSORG
 10
0.0
 20
0.0
 30
0.0
  9
$PUCSXDIR
 10
1.0
 20
0.0
 30
0.0
  9
$PUCSYDIR
 10
0.0
 20
1.0
 30
0.0
  9
$PUCSORTHOREF
  2

  9
$PUCSORTHOVIEW
 70
     0
  9
$PUCSORGTOP
 10
0.0
 20
0.0
 30
0.0
  9
$PUCSORGBOTTOM
 10
0.0
 20
0.0
 30
0.0
  9
$PUCSORGLEFT
 10
0.0
 20
0.0
 30
0.0
  9
$PUCSORGRIGHT
 10
0.0
 20
0.0
 30
0.0
  9
$PUCSORGFRONT
 10
0.0
 20
0.0
 30
0.0
  9
$PUCSORGBACK
 10
0.0
 20
0.0
 30
0.0
  9
$USERI1
 70
     0
  9
$USERI2
 70
     0
  9
$USERI3
 70
     0
  9
$USERI4
 70
     0
  9
$USERI5
 70
     0
  9
$USERR1
 40
0.0
  9
$USERR2
 40
0.0
  9
$USERR3
 40
0.0
  9
$USERR4
 40
0.0
  9
$USERR5
 40
0.0
  9
$WORLDVIEW
 70
     1
  9
$SHADEDGE
 70
     3
  9
$SHADEDIF
 70
    70
  9
$TILEMODE
 70
     1
  9
$MAXACTVP
 70
    64
  9
$PINSBASE
 10
0.0
 20
0.0
 30
0.0
  9
$PLIMCHECK
 70
     0
  9
$PEXTMIN
 10
1.0000000000E+20
 20
1.0000000000E+20
 30
1.0000000000E+20
  9
$PEXTMAX
 10
-1.0000000000E+20
 20
-1.0000000000E+20
 30
-1.0000000000E+20
  9
$PLIMMIN
 10
0.0
 20
0.0
  9
$PLIMMAX
 10
420.0
 20
297.0
  9
$UNITMODE
 70
     0
  9
$VISRETAIN
 70
     1
  9
$PLINEGEN
 70
     0
  9
$PSLTSCALE
 70
     1
  9
$TREEDEPTH
 70
  3020
  9
$CMLSTYLE
  2
Standard
  9
$CMLJUST
 70
     0
  9
$CMLSCALE
 40
20.0
  9
$PROXYGRAPHICS
 70
     1
  9
$MEASUREMENT
 70
     1
  9
$CELWEIGHT
370
    -1
  9
$ENDCAPS
280
     0
  9
$JOINSTYLE
280
     0
  9
$LWDISPLAY
290
     1
  9
$INSUNITS
 70
     4
  9
$HYPERLINKBASE
  1

  9
$STYLESHEET
  1

  9
$XEDIT
290
     1
  9
$CEPSNTYPE
380
     0
  9
$PSTYLEMODE
290
     1
  9
$FINGERPRINTGUID
  2
{fa368ca5-43b3-467d-86d6-01681768f5f6}
  9
$VERSIONGUID
  2
{FAEB1C32-E019-11D5-929B-00C0DF256EC4}
  9
$EXTNAMES
290
     1
  9
$PSVPSCALE
 40
0.0
  9
$OLESTARTUP
290
     0
  0
ENDSEC
  0
SECTION
  2
CLASSES
  0
CLASS
  1
ACDBDICTIONARYWDFLT
  2
AcDbDictionaryWithDefault
  3
ObjectDBX Classes
 90
        0
280
     0
281
     0
  0
CLASS
  1
VISUALSTYLE
  2
AcDbVisualStyle
  3
ObjectDBX Classes
 90
     4095
280
     0
281
     0
  0
CLASS
  1
MATERIAL
  2
AcDbMaterial
  3
ObjectDBX Classes
 90
     1153
280
     0
281
     0
  0
CLASS
  1
SCALE
  2
AcDbScale
  3
ObjectDBX Classes
 90
     1153
280
     0
281
     0
  0
CLASS
  1
TABLESTYLE
  2
AcDbTableStyle
  3
ObjectDBX Classes
 90
     4095
280
     0
281
     0
  0
CLASS
  1
MLEADERSTYLE
  2
AcDbMLeaderStyle
  3
ACDB_MLEADERSTYLE_CLASS
 90
     4095
280
     0
281
     0
  0
CLASS
  1
SUN
  2
AcDbSun
  3
SCENEOE
 90
     1153
280
     0
281
     0
  0
CLASS
  1
ACDBPLACEHOLDER
  2
AcDbPlaceHolder
  3
ObjectDBX Classes
 90
        0
280
     0
281
     0
  0
CLASS
  1
LAYOUT
  2
AcDbLayout
  3
ObjectDBX Classes
 90
        0
280
     0
281
     0
  0
ENDSEC
  0
SECTION
  2
TABLES
  0
TABLE
  2
VPORT
  5
8
330
0
100
AcDbSymbolTable
 70
     1
  0
VPORT
  5
29
330
8
100
AcDbSymbolTableRecord
100
AcDbViewportTableRecord
  2
*Active
 70
     0
 10
0.0
 20
0.0
 11
1.0
 21
1.0
 12
210.0
 22
148.5
 13
0.0
 23
0.0
 14
10.0
 24
10.0
 15
10.0
 25
10.0
 16
0.0
 26
0.0
 36
1.0
 17
0.0
 27
0.0
 37
0.0
 40
297.0
 41
1.4141414141
 42
50.0
 43
0.0
 44
0.0
 50
0.0
 51
0.0
 71
     0
 72
  2000
 73
     1
 74
     3
 75
     0
 76
     0
 77
     0
 78
     0
281
     0
 65
     1
110
0.0
120
0.0
130
0.0
111
1.0
121
0.0
131
0.0
112
0.0
122
1.0
132
0.0
 79
     0
146
0.0
  0
ENDTAB
  0
TABLE
  2
LTYPE
  5
5
330
0
100
AcDbSymbolTable
 70
     6
  0
LTYPE
  5
14
330
5
100
AcDbSymbolTableRecord
100
AcDbLinetypeTableRecord
  2
ByBlock
 70
     0
  3

 72
    65
 73
     0
 40
0.0
  0
LTYPE
  5
15
330
5
100
AcDbSymbolTableRecord
100
AcDbLinetypeTableRecord
  2
ByLayer
 70
     0
  3

 72
    65
 73
     0
 40
0.0
  0
LTYPE
  5
16
330
5
100
AcDbSymbolTableRecord
100
AcDbLinetypeTableRecord
  2
Continuous
 70
     0
  3
Solid line
 72
    65
 73
     0
 40
0.0
  0
LTYPE
  5
6E
330
5
100
AcDbSymbolTableRecord
100
AcDbLinetypeTableRecord
  2
HIDDEN
 70
     0
  3
Hidden __ __ __ __ __ __ __ __ __ __ __ __ __ __
 72
    65
 73
     2
 40
1.905
 49
1.27
 74
     0
 49
-0.635
 74
     0
  0
LTYPE
  5
6F
330
5
100
AcDbSymbolTableRecord
100
AcDbLinetypeTableRecord
  2
PHANTOM
 70
     0
  3
Phantom ______  __  __  ______  __  __  ______
 72
    65
 73
     6
 40
12.7
 49
6.35
 74
     0
 49
-1.27
 74
     0
 49
1.27
 74
     0
 49
-1.27
 74
     0
 49
1.27
 74
     0
 49
-1.27
 74
     0
  0
LTYPE
  5
70
330
5
100
AcDbSymbolTableRecord
100
AcDbLinetypeTableRecord
  2
CENTER
 70
     0
  3
Center ____ _ ____ _ ____ _ ____ _ ____ _ ____
 72
    65
 73
     4
 40
10.16
 49
6.35
 74
     0
 49
-1.27
 74
     0
 49
1.27
 74
     0
 49
-1.27
 74
     0
  0
LTYPE
  5
71
330
5
100
AcDbSymbolTableRecord
100
AcDbLinetypeTableRecord
  2
CENTERX2
 70
     0
  3
Center (2x) ________  __  ________  __  _____
 72
    65
 73
     4
 40
20.32
 49
12.7
 74
     0
 49
-2.54
 74
     0
 49
2.54
 74
     0
 49
-2.54
 74
     0
  0
LTYPE
  5
72
330
5
100
AcDbSymbolTableRecord
100
AcDbLinetypeTableRecord
  2
DOT2
 70
     0
  3
Dot (.5x) ........................................
 72
    65
 73
     2
 40
0.635
 49
0.0
 74
     0
 49
-0.635
 74
     0
  0
ENDTAB
  0
TABLE
  2
LAYER
  5
2
330
0
100
AcDbSymbolTable
 70
    10
  0
LAYER
  5
10
330
2
100
AcDbSymbolTableRecord
100
AcDbLayerTableRecord
  2
0
 70
     0
 62
     7
  6
Continuous
370
    -3
390
F
  0
LAYER
  5
73
330
2
100
AcDbSymbolTableRecord
100
AcDbLayerTableRecord
  2
SLD-0
 70
     0
 62
   179
  6
Continuous
370
    -3
390
F
  0
LAYER
  5
74
330
2
100
AcDbSymbolTableRecord
100
AcDbLayerTableRecord
  2
002
 70
     0
 62
   179
  6
Continuous
370
    -3
390
F
  0
LAYER
  5
75
330
2
100
AcDbSymbolTableRecord
100
AcDbLayerTableRecord
  2
003
 70
     0
 62
   179
  6
Continuous
370
    -3
390
F
  0
LAYER
  5
76
330
2
100
AcDbSymbolTableRecord
100
AcDbLayerTableRecord
  2
004
 70
     0
 62
   179
  6
Continuous
370
    -3
390
F
  0
LAYER
  5
77
330
2
100
AcDbSymbolTableRecord
100
AcDbLayerTableRecord
  2
005
 70
     0
 62
   179
  6
Continuous
370
    -3
390
F
  0
LAYER
  5
78
330
2
100
AcDbSymbolTableRecord
100
AcDbLayerTableRecord
  2
006
 70
     0
 62
   179
  6
Continuous
370
    -3
390
F
  0
LAYER
  5
79
330
2
100
AcDbSymbolTableRecord
100
AcDbLayerTableRecord
  2
007
 70
     0
 62
   179
  6
Continuous
370
    -3
390
F
  0
LAYER
  5
7A
330
2
100
AcDbSymbolTableRecord
100
AcDbLayerTableRecord
  2
008
 70
     0
 62
   179
  6
Continuous
370
    -3
390
F
  0
LAYER
  5
7B
330
2
100
AcDbSymbolTableRecord
100
AcDbLayerTableRecord
  2
009
 70
     0
 62
   179
  6
Continuous
370
    -3
390
F
  0
ENDTAB
  0
TABLE
  2
STYLE
  5
3
330
0
100
AcDbSymbolTable
 70
     6
  0
STYLE
  5
11
330
3
100
AcDbSymbolTableRecord
100
AcDbTextStyleTableRecord
  2
Standard
 70
     0
 40
0.0
 41
1.0
 50
0.0
 71
     0
 42
3.5
  3
txt
  4
bigfont
  0
STYLE
  5
8D
330
3
100
AcDbSymbolTableRecord
100
AcDbTextStyleTableRecord
  2
SLDTEXTSTYLE0
 70
     0
 40
0.0
 41
0.7685188
 50
0.0
 71
     0
 42
3.5
  3
TXT
  4
bigfont
  0
STYLE
  5
98
330
3
100
AcDbSymbolTableRecord
100
AcDbTextStyleTableRecord
  2
SLDTEXTSTYLE1
 70
     0
 40
0.0
 41
0.6140348421
 50
0.0
 71
     0
 42
3.5
  3
TXT
  4
bigfont
  0
STYLE
  5
9E
330
3
100
AcDbSymbolTableRecord
100
AcDbTextStyleTableRecord
  2
SLDTEXTSTYLE2
 70
     0
 40
0.0
 41
0.7962962
 50
0.0
 71
     0
 42
3.5
  3
TXT
  4
bigfont
  0
STYLE
  5
110
330
3
100
AcDbSymbolTableRecord
100
AcDbTextStyleTableRecord
  2
SLDTEXTSTYLE3
 70
     0
 40
0.0
 41
0.7651817895
 50
0.0
 71
     0
 42
3.5
  3
TXT
  4
bigfont
  0
STYLE
  5
16C
330
3
100
AcDbSymbolTableRecord
100
AcDbTextStyleTableRecord
  2
SLDTEXTSTYLE4
 70
     0
 40
0.0
 41
0.7
 50
0.0
 71
     0
 42
3.5
  3
TXT
  4
bigfont
  0
ENDTAB
  0
TABLE
  2
VIEW
  5
6
330
0
100
AcDbSymbolTable
 70
     0
  0
ENDTAB
  0
TABLE
  2
UCS
  5
7
330
0
100
AcDbSymbolTable
 70
     0
  0
ENDTAB
  0
TABLE
  2
APPID
  5
9
330
0
100
AcDbSymbolTable
 70
     1
  0
APPID
  5
12
330
9
100
AcDbSymbolTableRecord
100
AcDbRegAppTableRecord
  2
ACAD
 70
     0
  0
ENDTAB
  0
TABLE
  2
DIMSTYLE
  5
A
330
0
100
AcDbSymbolTable
 70
     3
100
AcDbDimStyleTable
  0
DIMSTYLE
105
27
330
A
100
AcDbSymbolTableRecord
100
AcDbDimStyleTableRecord
  2
ISO-25
 70
     0
 41
2.5
 42
0.625
 43
3.75
 44
1.25
 73
     0
 74
     0
 77
     1
 78
     8
140
2.5
141
2.5
143
0.0393700787
147
0.625
171
     3
172
     1
178
     0
271
     2
272
     2
274
     3
278
    44
283
     0
284
     8
340
11
  0
DIMSTYLE
105
16D
102
{ACAD_REACTORS
330
16B
330
17D
330
1A3
330
1AD
330
1B7
330
26F
102
}
330
A
100
AcDbSymbolTableRecord
100
AcDbDimStyleTableRecord
  2
SLDDIMSTYLE0
 70
     0
 41
3.302
 44
0.0
 45
0.000000001
 73
     0
 74
     0
 77
     1
 78
    12
 79
     3
140
3.5
147
0.875
173
     1
178
     0
271
     0
272
     1
276
     2
284
    12
340
16C
341
16E
343
16E
344
16E
  0
DIMSTYLE
105
1C2
102
{ACAD_REACTORS
330
1C1
102
}
330
A
100
AcDbSymbolTableRecord
100
AcDbDimStyleTableRecord
  2
SLDDIMSTYLE1
 70
     0
 41
3.302
 44
0.0
 45
0.000000001
 73
     0
 74
     0
 77
     1
 78
    12
 79
     3
140
3.5
141
0.0
147
0.875
172
     1
173
     1
178
     0
271
     0
272
     1
276
     2
284
    12
340
16C
341
1C3
343
1C3
344
16E
  0
ENDTAB
  0
TABLE
  2
BLOCK_RECORD
  5
1
330
0
100
AcDbSymbolTable
 70
    29
  0
BLOCK_RECORD
  5
1F
330
1
100
AcDbSymbolTableRecord
100
AcDbBlockTableRecord
  2
*Model_Space
340
22
  0
BLOCK_RECORD
  5
1B
330
1
100
AcDbSymbolTableRecord
100
AcDbBlockTableRecord
  2
*Paper_Space
340
1E
  0
BLOCK_RECORD
  5
23
330
1
100
AcDbSymbolTableRecord
100
AcDbBlockTableRecord
  2
*Paper_Space0
340
26
  0
BLOCK_RECORD
  5
7C
330
1
100
AcDbSymbolTableRecord
100
AcDbBlockTableRecord
  2
ﾌﾞﾛｯｸ13
340
0
102
{BLKREFS
331
10C
102
}
  0
BLOCK_RECORD
  5
8A
330
1
100
AcDbSymbolTableRecord
100
AcDbBlockTableRecord
  2
SW_NOTE_0
340
0
102
{BLKREFS
331
8F
102
}
  0
BLOCK_RECORD
  5
90
330
1
100
AcDbSymbolTableRecord
100
AcDbBlockTableRecord
  2
SW_NOTE_0_1
340
0
102
{BLKREFS
331
94
102
}
  0
BLOCK_RECORD
  5
95
330
1
100
AcDbSymbolTableRecord
100
AcDbBlockTableRecord
  2
SW_NOTE_0_2
340
0
102
{BLKREFS
331
9A
102
}
  0
BLOCK_RECORD
  5
9B
330
1
100
AcDbSymbolTableRecord
100
AcDbBlockTableRecord
  2
SW_NOTE_0_3
340
0
102
{BLKREFS
331
A0
102
}
  0
BLOCK_RECORD
  5
A1
330
1
100
AcDbSymbolTableRecord
100
AcDbBlockTableRecord
  2
SW_NOTE_0_4
340
0
102
{BLKREFS
331
A5
102
}
  0
BLOCK_RECORD
  5
A6
330
1
100
AcDbSymbolTableRecord
100
AcDbBlockTableRecord
  2
SW_NOTE_0_5
340
0
102
{BLKREFS
331
AA
102
}
  0
BLOCK_RECORD
  5
AB
330
1
100
AcDbSymbolTableRecord
100
AcDbBlockTableRecord
  2
ﾌﾞﾛｯｸ17
340
0
102
{BLKREFS
331
10B
102
}
  0
BLOCK_RECORD
  5
113
330
1
100
AcDbSymbolTableRecord
100
AcDbBlockTableRecord
  2
SW_NOTE_0_6
340
0
102
{BLKREFS
331
11B
102
}
  0
BLOCK_RECORD
  5
11D
330
1
100
AcDbSymbolTableRecord
100
AcDbBlockTableRecord
  2
SW_NOTE_0_7
340
0
102
{BLKREFS
331
125
102
}
  0
BLOCK_RECORD
  5
126
330
1
100
AcDbSymbolTableRecord
100
AcDbBlockTableRecord
  2
SW_NOTE_0_8
340
0
102
{BLKREFS
331
12E
102
}
  0
BLOCK_RECORD
  5
16E
330
1
100
AcDbSymbolTableRecord
100
AcDbBlockTableRecord
  2
_Open30
340
0
102
{BLKREFS
331
177
331
178
331
181
331
182
331
1A7
331
1A8
331
1B1
331
1B2
331
1BB
331
1BC
331
1C9
331
273
331
274
102
}
  0
BLOCK_RECORD
  5
174
330
1
100
AcDbSymbolTableRecord
100
AcDbBlockTableRecord
  2
_D
340
0
  0
BLOCK_RECORD
  5
17E
330
1
100
AcDbSymbolTableRecord
100
AcDbBlockTableRecord
  2
_D_1
340
0
  0
BLOCK_RECORD
  5
1A4
330
1
100
AcDbSymbolTableRecord
100
AcDbBlockTableRecord
  2
_D_2
340
0
  0
BLOCK_RECORD
  5
1AE
330
1
100
AcDbSymbolTableRecord
100
AcDbBlockTableRecord
  2
_D_3
340
0
  0
BLOCK_RECORD
  5
1B8
330
1
100
AcDbSymbolTableRecord
100
AcDbBlockTableRecord
  2
_D_4
340
0
  0
BLOCK_RECORD
  5
1C3
330
1
100
AcDbSymbolTableRecord
100
AcDbBlockTableRecord
  2
_None
340
0
  0
BLOCK_RECORD
  5
1C6
330
1
100
AcDbSymbolTableRecord
100
AcDbBlockTableRecord
  2
_D_5
340
0
  0
BLOCK_RECORD
  5
1CF
330
1
100
AcDbSymbolTableRecord
100
AcDbBlockTableRecord
  2
SW_CENTERMARKSYMBOL_0
340
0
102
{BLKREFS
331
1DA
102
}
  0
BLOCK_RECORD
  5
1DB
330
1
100
AcDbSymbolTableRecord
100
AcDbBlockTableRecord
  2
SW_CENTERMARKSYMBOL_1
340
0
102
{BLKREFS
331
1E6
102
}
  0
BLOCK_RECORD
  5
1E7
330
1
100
AcDbSymbolTableRecord
100
AcDbBlockTableRecord
  2
SW_CENTERMARKSYMBOL_2
340
0
102
{BLKREFS
331
1F2
102
}
  0
BLOCK_RECORD
  5
1F3
330
1
100
AcDbSymbolTableRecord
100
AcDbBlockTableRecord
  2
SW_CENTERMARKSYMBOL_3
340
0
102
{BLKREFS
331
1FE
102
}
  0
BLOCK_RECORD
  5
1FF
330
1
100
AcDbSymbolTableRecord
100
AcDbBlockTableRecord
  2
SW_CENTERMARKSYMBOL_4
340
0
102
{BLKREFS
331
20A
102
}
  0
BLOCK_RECORD
  5
20B
330
1
100
AcDbSymbolTableRecord
100
AcDbBlockTableRecord
  2
SW_CENTERMARKSYMBOL_5
340
0
102
{BLKREFS
331
216
102
}
  0
BLOCK_RECORD
  5
217
330
1
100
AcDbSymbolTableRecord
100
AcDbBlockTableRecord
  2
SW_CENTERMARKSYMBOL_6
340
0
102
{BLKREFS
331
222
102
}
  0
BLOCK_RECORD
  5
223
330
1
100
AcDbSymbolTableRecord
100
AcDbBlockTableRecord
  2
SW_CENTERMARKSYMBOL_7
340
0
102
{BLKREFS
331
22E
102
}
  0
BLOCK_RECORD
  5
270
330
1
100
AcDbSymbolTableRecord
100
AcDbBlockTableRecord
  2
_D_6
340
0
  0
ENDTAB
  0
ENDSEC
  0
SECTION
  2
BLOCKS
  0
BLOCK
  5
20
330
1F
100
AcDbEntity
  8
0
100
AcDbBlockBegin
  2
*Model_Space
 70
     0
 10
0.0
 20
0.0
 30
0.0
  3
*Model_Space
  1

  0
ENDBLK
  5
21
330
1F
100
AcDbEntity
  8
0
100
AcDbBlockEnd
  0
BLOCK
  5
1C
330
1B
100
AcDbEntity
 67
     1
  8
0
100
AcDbBlockBegin
  2
*Paper_Space
 70
     0
 10
0.0
 20
0.0
 30
0.0
  3
*Paper_Space
  1

  0
ENDBLK
  5
1D
330
1B
100
AcDbEntity
 67
     1
  8
0
100
AcDbBlockEnd
  0
BLOCK
  5
24
330
23
100
AcDbEntity
  8
0
100
AcDbBlockBegin
  2
*Paper_Space0
 70
     0
 10
0.0
 20
0.0
 30
0.0
  3
*Paper_Space0
  1

  0
ENDBLK
  5
25
330
23
100
AcDbEntity
  8
0
100
AcDbBlockEnd
  0
BLOCK
  5
7D
330
7C
100
AcDbEntity
  8
0
100
AcDbBlockBegin
  2
ﾌﾞﾛｯｸ13
 70
     0
 10
0.0
 20
0.0
 30
0.0
  3
ﾌﾞﾛｯｸ13
  1

  0
LINE
  5
7F
330
7C
100
AcDbEntity
  8
002
100
AcDbLine
 10
0.008307083
 20
788.252567
 30
0.0
 11
1132.160823083
 21
788.252567
 31
0.0
  0
LINE
  5
80
330
7C
100
AcDbEntity
  8
002
100
AcDbLine
 10
0.0
 20
0.0083500982
 30
0.0
 11
0.0
 21
788.2609170982
 31
0.0
  0
LINE
  5
81
330
7C
100
AcDbEntity
  8
002
100
AcDbLine
 10
1132.160823083
 20
788.252567
 30
0.0
 11
1132.160823083
 21
0.0
 31
0.0
  0
LINE
  5
82
330
7C
100
AcDbEntity
  8
002
100
AcDbLine
 10
1132.160823083
 20
0.0
 30
0.0
 11
0.0
 21
0.0083500982
 31
0.0
  0
LINE
  5
83
330
7C
100
AcDbEntity
  8
006
100
AcDbLine
 10
682.732294083
 20
49.895909
 30
0.0
 11
1132.160823083
 21
49.895909
 31
0.0
  0
LINE
  5
84
330
7C
100
AcDbEntity
  8
006
100
AcDbLine
 10
683.677283083
 20
83.159849
 30
0.0
 11
1132.160823083
 21
83.159849
 31
0.0
  0
LINE
  5
85
330
7C
100
AcDbEntity
  8
006
100
AcDbLine
 10
683.097639083
 20
116.423788
 30
0.0
 11
1132.160823083
 21
116.423788
 31
0.0
  0
LINE
  5
86
330
7C
100
AcDbEntity
  8
006
100
AcDbLine
 10
683.097639083
 20
116.423788
 30
0.0
 11
683.097639083
 21
0.0
 31
0.0
  0
LINE
  5
87
330
7C
100
AcDbEntity
  8
006
100
AcDbLine
 10
749.625518083
 20
116.423788
 30
0.0
 11
749.625518083
 21
49.895909
 31
0.0
  0
LINE
  5
88
330
7C
100
AcDbEntity
  8
006
100
AcDbLine
 10
1065.632944083
 20
116.423788
 30
0.0
 11
1065.632944083
 21
0.0
 31
0.0
  0
LINE
  5
89
330
7C
100
AcDbEntity
  8
006
100
AcDbLine
 10
1015.737034083
 20
116.423788
 30
0.0
 11
1015.737034083
 21
0.0
 31
0.0
  0
INSERT
  5
8F
330
7C
100
AcDbEntity
  8
006
 62
   179
100
AcDbBlockReference
  2
SW_NOTE_0
 10
693.575779083
 20
51.8584810395
 30
0.0
  0
INSERT
  5
94
330
7C
100
AcDbEntity
  8
006
 62
   179
100
AcDbBlockReference
  2
SW_NOTE_0_1
 10
693.575779083
 20
85.1224200395
 30
0.0
  0
INSERT
  5
9A
330
7C
100
AcDbEntity
  8
008
 62
   179
100
AcDbBlockReference
  2
SW_NOTE_0_2
 10
1083.3044014266
 20
54.6776119039
 30
0.0
  0
INSERT
  5
A0
330
7C
100
AcDbEntity
  8
006
 62
   179
100
AcDbBlockReference
  2
SW_NOTE_0_3
 10
1018.2749914266
 20
14.0925659185
 30
0.0
  0
INSERT
  5
A5
330
7C
100
AcDbEntity
  8
006
 62
   179
100
AcDbBlockReference
  2
SW_NOTE_0_4
 10
1020.395578083
 20
53.7752843179
 30
0.0
  0
INSERT
  5
AA
330
7C
100
AcDbEntity
  8
006
 62
   179
100
AcDbBlockReference
  2
SW_NOTE_0_5
 10
1020.395578083
 20
86.1702346289
 30
0.0
  0
ENDBLK
  5
7E
330
7C
100
AcDbEntity
  8
0
100
AcDbBlockEnd
  0
BLOCK
  5
8B
330
8A
100
AcDbEntity
  8
0
100
AcDbBlockBegin
  2
SW_NOTE_0
 70
     0
 10
0.0
 20
0.0
 30
0.0
  3
SW_NOTE_0
  1

  0
MTEXT
  5
8E
330
8A
100
AcDbEntity
  8
006
 62
     0
100
AcDbMText
 10
0.0
 20
27.0140696499
 30
0.0
 40
20.956284
 41
0.0
 71
     1
 72
     1
  1
品名
  7
SLDTEXTSTYLE0
 73
     1
 44
1.0
  0
ENDBLK
  5
8C
330
8A
100
AcDbEntity
  8
0
100
AcDbBlockEnd
  0
BLOCK
  5
91
330
90
100
AcDbEntity
  8
0
100
AcDbBlockBegin
  2
SW_NOTE_0_1
 70
     0
 10
0.0
 20
0.0
 30
0.0
  3
SW_NOTE_0_1
  1

  0
MTEXT
  5
93
330
90
100
AcDbEntity
  8
006
 62
     0
100
AcDbMText
 10
0.0
 20
27.0140696499
 30
0.0
 40
20.956284
 41
0.0
 71
     1
 72
     1
  1
形名
  7
SLDTEXTSTYLE0
 73
     1
 44
1.0
  0
ENDBLK
  5
92
330
90
100
AcDbEntity
  8
0
100
AcDbBlockEnd
  0
BLOCK
  5
96
330
95
100
AcDbEntity
  8
0
100
AcDbBlockBegin
  2
SW_NOTE_0_2
 70
     0
 10
0.0
 20
0.0
 30
0.0
  3
SW_NOTE_0_2
  1

  0
MTEXT
  5
99
330
95
100
AcDbEntity
  8
008
 62
     0
100
AcDbMText
 10
0.0
 20
25.727681882
 30
0.0
 40
19.958363
 41
0.0
 71
     1
 72
     1
  1
mm
  7
SLDTEXTSTYLE1
 73
     1
 44
1.0
  0
ENDBLK
  5
97
330
95
100
AcDbEntity
  8
0
100
AcDbBlockEnd
  0
BLOCK
  5
9C
330
9B
100
AcDbEntity
  8
0
100
AcDbBlockBegin
  2
SW_NOTE_0_3
 70
     0
 10
0.0
 20
0.0
 30
0.0
  3
SW_NOTE_0_3
  1

  0
MTEXT
  5
9F
330
9B
100
AcDbEntity
  8
006
 62
     0
100
AcDbMText
 10
0.0
 20
21.6534646962
 30
0.0
 40
16.797771
 41
0.0
 71
     1
 72
     1
  1
作成
  7
SLDTEXTSTYLE2
 73
     1
 44
1.0
  0
ENDBLK
  5
9D
330
9B
100
AcDbEntity
  8
0
100
AcDbBlockEnd
  0
BLOCK
  5
A2
330
A1
100
AcDbEntity
  8
0
100
AcDbBlockBegin
  2
SW_NOTE_0_4
 70
     0
 10
0.0
 20
0.0
 30
0.0
  3
SW_NOTE_0_4
  1

  0
MTEXT
  5
A4
330
A1
100
AcDbEntity
  8
006
 62
     0
100
AcDbMText
 10
0.0
 20
17.3943578135
 30
0.0
 40
13.49375
 41
0.0
 71
     1
 72
     1
  1
単位
  7
SLDTEXTSTYLE2
 73
     1
 44
1.0
  0
ENDBLK
  5
A3
330
A1
100
AcDbEntity
  8
0
100
AcDbBlockEnd
  0
BLOCK
  5
A7
330
A6
100
AcDbEntity
  8
0
100
AcDbBlockBegin
  2
SW_NOTE_0_5
 70
     0
 10
0.0
 20
0.0
 30
0.0
  3
SW_NOTE_0_5
  1

  0
MTEXT
  5
A9
330
A6
100
AcDbEntity
  8
006
 62
     0
100
AcDbMText
 10
0.0
 20
20.2605522374
 30
0.0
 40
15.717213
 41
0.0
 71
     1
 72
     1
  1
尺度
  7
SLDTEXTSTYLE2
 73
     1
 44
1.0
  0
ENDBLK
  5
A8
330
A6
100
AcDbEntity
  8
0
100
AcDbBlockEnd
  0
BLOCK
  5
AC
330
AB
100
AcDbEntity
  8
0
100
AcDbBlockBegin
  2
ﾌﾞﾛｯｸ17
 70
     0
 10
0.0
 20
0.0
 30
0.0
  3
ﾌﾞﾛｯｸ17
  1

  0
ARC
  5
AE
330
AB
100
AcDbEntity
  8
006
100
AcDbCircle
 10
32.764981
 20
9.5127477687
 30
0.0
 40
3.825353000000185
100
AcDbArc
 50
0.0
 51
90.0
  0
ARC
  5
AF
330
AB
100
AcDbEntity
  8
006
100
AcDbCircle
 10
3.825353
 20
9.5127477687
 30
0.0
 40
3.825353000001996
100
AcDbArc
 50
90.0
 51
270.0
  0
ARC
  5
B0
330
AB
100
AcDbEntity
  8
006
100
AcDbCircle
 10
12.806617
 20
3.8578777687
 30
0.0
 40
3.825353000000185
100
AcDbArc
 50
270.0
 51
90.0
  0
ARC
  5
B1
330
AB
100
AcDbEntity
  8
006
100
AcDbCircle
 10
6.153829
 20
9.5127477687
 30
0.0
 40
1.829517000000121
100
AcDbArc
 50
90.0
 51
270.0
  0
ARC
  5
B2
330
AB
100
AcDbEntity
  8
006
100
AcDbCircle
 10
10.478141
 20
3.8578782687
 30
0.0
 40
1.829516499998143
100
AcDbArc
 50
270.0
 51
90.0
  0
ARC
  5
B3
330
AB
100
AcDbEntity
  8
006
100
AcDbCircle
 10
51.559106
 20
1.6957217687
 30
0.0
 40
4.989591000000068
100
AcDbArc
 50
0.0
 51
90.0
  0
ARC
  5
B4
330
AB
100
AcDbEntity
  8
006
100
AcDbCircle
 10
51.559106
 20
11.6749037687
 30
0.0
 40
4.989591000000068
100
AcDbArc
 50
270.0
 51
0.0
  0
ARC
  5
B5
330
AB
100
AcDbEntity
  8
006
100
AcDbCircle
 10
30.436505
 20
9.5127477687
 30
0.0
 40
1.829516999998827
100
AcDbArc
 50
359.9999999997
 51
90.0
  0
ARC
  5
B6
330
AB
100
AcDbEntity
  8
006
100
AcDbCircle
 10
47.234794
 20
10.6769857687
 30
0.0
 40
4.989591000000016
100
AcDbArc
 50
323.130102
 51
0.0
  0
ARC
  5
B7
330
AB
100
AcDbEntity
  8
006
100
AcDbCircle
 10
47.234794
 20
2.6936407687
 30
0.0
 40
4.989590999999962
100
AcDbArc
 50
0.0
 51
36.869898
  0
LINE
  5
B8
330
AB
100
AcDbEntity
  8
006
100
AcDbLine
 10
16.63197
 20
13.3381007687
 30
0.0
 11
16.63197
 21
11.3422647687
 31
0.0
  0
LINE
  5
B9
330
AB
100
AcDbEntity
  8
006
100
AcDbLine
 10
44.24104
 20
13.3381007687
 30
0.0
 11
44.24104
 21
7.6832307687
 31
0.0
  0
LINE
  5
BA
330
AB
100
AcDbEntity
  8
006
100
AcDbLine
 10
56.548697
 20
13.3381007687
 30
0.0
 11
56.548697
 21
11.6749037687
 31
0.0
  0
LINE
  5
BB
330
AB
100
AcDbEntity
  8
006
100
AcDbLine
 10
52.224385
 20
10.6769857687
 30
0.0
 11
52.224385
 21
13.3381007687
 31
0.0
  0
LINE
  5
BC
330
AB
100
AcDbEntity
  8
006
100
AcDbLine
 10
19.958364
 20
0.0325247687
 30
0.0
 11
19.958364
 21
13.3381007687
 31
0.0
  0
LINE
  5
BD
330
AB
100
AcDbEntity
  8
006
100
AcDbLine
 10
25.779553
 20
11.3422647687
 30
0.0
 11
25.779553
 21
13.3381007687
 31
0.0
  0
LINE
  5
BE
330
AB
100
AcDbEntity
  8
006
100
AcDbLine
 10
24.282676
 20
13.3381007687
 30
0.0
 11
24.282676
 21
0.0325247687
 31
0.0
  0
LINE
  5
BF
330
AB
100
AcDbEntity
  8
006
100
AcDbLine
 10
39.916728
 20
0.0325247687
 30
0.0
 11
39.916728
 21
13.3381007687
 31
0.0
  0
LINE
  5
C0
330
AB
100
AcDbEntity
  8
006
100
AcDbLine
 10
25.779553
 20
11.3422647687
 30
0.0
 11
30.436505
 21
11.3422647687
 31
0.0
  0
LINE
  5
C1
330
AB
100
AcDbEntity
  8
006
100
AcDbLine
 10
10.478141
 20
2.0283617687
 30
0.0
 11
0.0
 21
2.0283617687
 31
0.0
  0
LINE
  5
C2
330
AB
100
AcDbEntity
  8
006
100
AcDbLine
 10
12.806617
 20
0.0325247687
 30
0.0
 11
0.0
 21
0.0325247687
 31
0.0
  0
LINE
  5
C3
330
AB
100
AcDbEntity
  8
006
100
AcDbLine
 10
0.0
 20
2.0283617687
 30
0.0
 11
0.0
 21
0.0325247687
 31
0.0
  0
LINE
  5
C4
330
AB
100
AcDbEntity
  8
006
100
AcDbLine
 10
6.153829
 20
11.3422647687
 30
0.0
 11
16.63197
 21
11.3422647687
 31
0.0
  0
LINE
  5
C5
330
AB
100
AcDbEntity
  8
006
100
AcDbLine
 10
10.478141
 20
5.6873947687
 30
0.0
 11
3.825353
 21
5.6873947687
 31
0.0
  0
LINE
  5
C6
330
AB
100
AcDbEntity
  8
006
100
AcDbLine
 10
12.806617
 20
7.6832307687
 30
0.0
 11
6.153829
 21
7.6832307687
 31
0.0
  0
LINE
  5
C7
330
AB
100
AcDbEntity
  8
006
100
AcDbLine
 10
24.282676
 20
0.0325247687
 30
0.0
 11
19.958364
 21
0.0325247687
 31
0.0
  0
LINE
  5
C8
330
AB
100
AcDbEntity
  8
006
100
AcDbLine
 10
56.548697
 20
0.0325247687
 30
0.0
 11
52.224385
 21
0.0325247687
 31
0.0
  0
LINE
  5
C9
330
AB
100
AcDbEntity
  8
006
100
AcDbLine
 10
44.24104
 20
0.0325247687
 30
0.0
 11
39.916728
 21
0.0325247687
 31
0.0
  0
LINE
  5
CA
330
AB
100
AcDbEntity
  8
006
100
AcDbLine
 10
36.590334
 20
0.0
 30
0.0
 11
32.266022
 21
0.0
 31
0.0
  0
LINE
  5
CB
330
AB
100
AcDbEntity
  8
006
100
AcDbLine
 10
32.266022
 20
0.0
 30
0.0
 11
32.266022
 21
9.5127477687
 31
0.0
  0
LINE
  5
CC
330
AB
100
AcDbEntity
  8
006
100
AcDbLine
 10
36.590334
 20
9.5127477687
 30
0.0
 11
36.590334
 21
0.0
 31
0.0
  0
LINE
  5
CD
330
AB
100
AcDbEntity
  8
006
100
AcDbLine
 10
51.2264667815
 20
5.6873953934
 30
0.0
 11
44.24104
 21
5.6873947687
 31
0.0
  0
LINE
  5
CE
330
AB
100
AcDbEntity
  8
006
100
AcDbLine
 10
44.24104
 20
7.6832307687
 30
0.0
 11
51.2264667815
 21
7.6832311441
 31
0.0
  0
LINE
  5
CF
330
AB
100
AcDbEntity
  8
006
100
AcDbLine
 10
52.224385
 20
0.0325247687
 30
0.0
 11
52.224385
 21
2.6936407687
 31
0.0
  0
LINE
  5
D0
330
AB
100
AcDbEntity
  8
006
100
AcDbLine
 10
44.24104
 20
5.6873947687
 30
0.0
 11
44.24104
 21
0.0325247687
 31
0.0
  0
LINE
  5
D1
330
AB
100
AcDbEntity
  8
006
100
AcDbLine
 10
56.548697
 20
1.6957217687
 30
0.0
 11
56.548697
 21
0.0325247687
 31
0.0
  0
LINE
  5
D2
330
AB
100
AcDbEntity
  8
006
100
AcDbLine
 10
32.764981
 20
13.3381007687
 30
0.0
 11
25.779553
 21
13.3381007687
 31
0.0
  0
LINE
  5
D3
330
AB
100
AcDbEntity
  8
006
100
AcDbLine
 10
3.825353
 20
13.3381007687
 30
0.0
 11
16.63197
 21
13.3381007687
 31
0.0
  0
LINE
  5
D4
330
AB
100
AcDbEntity
  8
006
100
AcDbLine
 10
24.282676
 20
13.3381007687
 30
0.0
 11
19.958364
 21
13.3381007687
 31
0.0
  0
LINE
  5
D5
330
AB
100
AcDbEntity
  8
006
100
AcDbLine
 10
52.224385
 20
13.3381007687
 30
0.0
 11
56.548697
 21
13.3381007687
 31
0.0
  0
LINE
  5
D6
330
AB
100
AcDbEntity
  8
006
100
AcDbLine
 10
44.24104
 20
13.3381007687
 30
0.0
 11
39.916728
 21
13.3381007687
 31
0.0
  0
HATCH
  5
D7
330
AB
100
AcDbEntity
  8
004
  6
Continuous
 62
   179
100
AcDbHatch
 10
0.0
 20
0.0
 30
0.0
210
0.0
220
0.0
230
1.0
  2
SOLID
 70
     1
 71
     0
 91
        1
 92
        0
 93
       12
 72
     2
 10
10.47814100000188
 20
3.857878268742551
 40
1.829516499998136
 50
270.0000000000008
 51
450.0000000000008
 73
     1
 72
     1
 10
10.47814100000188
 20
5.687394768740694
 11
3.825353000001973
 21
5.687394768740694
 72
     2
 10
3.825353000001974
 20
9.51274776874269
 40
3.825353000001995
 50
90.00000000000001
 51
270.0000000000008
 73
     0
 72
     1
 10
3.825353000001974
 20
13.33810076874468
 11
16.63197000000194
 21
13.33810076874468
 72
     1
 10
16.63197000000194
 20
13.33810076874468
 11
16.63197000000194
 21
11.34226476874281
 72
     1
 10
16.63197000000194
 20
11.34226476874281
 11
6.153829000001942
 21
11.34226476874281
 72
     2
 10
6.153829000001942
 20
9.51274776874269
 40
1.829517000000121
 50
90.0
 51
270.0000000000008
 73
     1
 72
     1
 10
6.153829000001942
 20
7.683230768742569
 11
12.80661700000196
 21
7.683230768742562
 72
     2
 10
12.80661700000196
 20
3.857877768742385
 40
3.825353000000177
 50
270.0000000000008
 51
450.0000000000008
 73
     0
 72
     1
 10
12.80661700000196
 20
0.0325247687422148
 11
0.0000000000019984
 21
0.0325247687422148
 72
     1
 10
0.0000000000019984
 20
0.0325247687422148
 11
0.0000000000019984
 21
2.028361768744422
 72
     1
 10
0.0000000000019984
 20
2.028361768744422
 11
10.47814100000188
 21
2.028361768744422
 97
        0
 75
     0
 76
     1
 98
        1
 10
0.0
 20
0.0
  0
HATCH
  5
D8
330
AB
100
AcDbEntity
  8
004
  6
Continuous
 62
   179
100
AcDbHatch
 10
0.0
 20
0.0
 30
0.0
210
0.0
220
0.0
230
1.0
  2
SOLID
 70
     1
 71
     0
 91
        1
 92
        0
 93
        8
 72
     2
 10
30.43650500000183
 20
9.512747768743987
 40
1.829516999998823
 50
359.999999999747
 51
450.0000000000008
 73
     1
 72
     1
 10
30.43650500000183
 20
11.34226476874281
 11
25.7795530000019
 21
11.34226476874281
 72
     1
 10
25.7795530000019
 20
11.34226476874281
 11
25.7795530000019
 21
13.33810076874468
 72
     1
 10
25.7795530000019
 20
13.33810076874468
 11
32.76498100000202
 21
13.33810076874458
 72
     2
 10
32.76498100000202
 20
9.5127477687445
 40
3.82535300000008
 50
270.0000000000008
 51
360.0000000000008
 73
     0
 72
     1
 10
36.590334000002
 20
9.5127477687445
 11
36.5903340000021
 21
-0.0000000000005134
 72
     1
 10
36.5903340000021
 20
-0.0000000000005135
 11
32.26602200000066
 21
-0.0000000000005135
 72
     1
 10
32.26602200000066
 20
-0.0000000000005135
 11
32.26602200000066
 21
9.512747768735883
 97
        0
 75
     0
 76
     1
 98
        1
 10
0.0
 20
0.0
  0
HATCH
  5
D9
330
AB
100
AcDbEntity
  8
004
  6
Continuous
 62
   179
100
AcDbHatch
 10
0.0
 20
0.0
 30
0.0
210
0.0
220
0.0
230
1.0
  2
SOLID
 70
     1
 71
     0
 91
        1
 92
        0
 93
       17
 72
     2
 10
47.23479400000197
 20
2.693640768745162
 40
4.989590999999944
 50
0.0
 51
36.86989799999476
 73
     1
 72
     1
 10
51.22646678149722
 20
5.687395393418032
 11
44.24104000000184
 21
5.687394768744331
 72
     1
 10
44.24104000000184
 20
5.687394768744331
 11
44.24104000000184
 21
0.0325247687422143
 72
     1
 10
44.24104000000184
 20
0.0325247687422148
 11
39.9167280000019
 21
0.0325247687422148
 72
     1
 10
39.9167280000019
 20
0.0325247687422148
 11
39.9167280000019
 21
13.33810076874468
 72
     1
 10
39.9167280000019
 20
13.33810076874468
 11
44.24104000000184
 21
13.33810076874468
 72
     1
 10
44.24104000000184
 20
13.33810076874468
 11
44.24104000000184
 21
7.683230768742569
 72
     1
 10
44.24104000000184
 20
7.683230768742569
 11
51.22646678149732
 21
7.683231144072854
 72
     2
 10
47.23479400000197
 20
10.67698576874571
 40
4.989590999999989
 50
323.1301020000068
 51
360.0000000000008
 73
     1
 72
     1
 10
52.22438500000193
 20
10.67698576874571
 11
52.22438500000193
 21
13.33810076874468
 72
     1
 10
52.22438500000193
 20
13.33810076874468
 11
56.54869700000198
 21
13.33810076874468
 72
     1
 10
56.54869700000198
 20
13.33810076874468
 11
56.54869700000173
 21
11.67490376874301
 72
     2
 10
51.55910600000191
 20
11.67490376874301
 40
4.989590999999818
 50
0.0
 51
90.0
 73
     0
 72
     2
 10
51.55910600000191
 20
1.695721768743885
 40
4.989590999999818
 50
270.0000000000008
 51
360.0000000000008
 73
     0
 72
     1
 10
56.54869700000198
 20
1.695721768743885
 11
56.54869700000198
 21
0.0325247687422148
 72
     1
 10
56.54869700000198
 20
0.0325247687422148
 11
52.22438500000193
 21
0.0325247687422148
 72
     1
 10
52.22438500000193
 20
0.0325247687422148
 11
52.22438500000193
 21
2.693640768745162
 97
        0
 75
     0
 76
     1
 98
        1
 10
0.0
 20
0.0
  0
ENDBLK
  5
AD
330
AB
100
AcDbEntity
  8
0
100
AcDbBlockEnd
  0
BLOCK
  5
114
330
113
100
AcDbEntity
  8
0
100
AcDbBlockBegin
  2
SW_NOTE_0_6
 70
     0
 10
0.0
 20
0.0
 30
0.0
  3
SW_NOTE_0_6
  1

  0
LINE
  5
116
330
113
100
AcDbEntity
  8
005
 62
     0
100
AcDbLine
 10
-0.8464499842
 20
0.0000001164
 30
0.0
 11
-0.8464499842
 21
5.4323199438
 31
0.0
  0
LINE
  5
117
330
113
100
AcDbEntity
  8
005
 62
     0
100
AcDbLine
 10
-0.8464499842
 20
5.4323199438
 30
0.0
 11
17.7262022626
 21
5.4323199438
 31
0.0
  0
LINE
  5
118
330
113
100
AcDbEntity
  8
005
 62
     0
100
AcDbLine
 10
17.7262022626
 20
5.4323199438
 30
0.0
 11
17.7262022626
 21
0.0000001164
 31
0.0
  0
LINE
  5
119
330
113
100
AcDbEntity
  8
005
 62
     0
100
AcDbLine
 10
17.7262022626
 20
0.0000001164
 30
0.0
 11
-0.8464499842
 21
0.0000001164
 31
0.0
  0
MTEXT
  5
11A
330
113
100
AcDbEntity
  8
005
 62
     0
100
AcDbMText
 10
0.0
 20
5.7135607243
 30
0.0
 40
4.43232
 41
0.0
 71
     1
 72
     1
  1
正面図
  7
SLDTEXTSTYLE3
 73
     1
 44
1.0
  0
ENDBLK
  5
115
330
113
100
AcDbEntity
  8
0
100
AcDbBlockEnd
  0
BLOCK
  5
11E
330
11D
100
AcDbEntity
  8
0
100
AcDbBlockBegin
  2
SW_NOTE_0_7
 70
     0
 10
0.0
 20
0.0
 30
0.0
  3
SW_NOTE_0_7
  1

  0
LINE
  5
120
330
11D
100
AcDbEntity
  8
005
 62
     0
100
AcDbLine
 10
-0.8464499842
 20
0.0000001164
 30
0.0
 11
-0.8464499842
 21
5.4323199438
 31
0.0
  0
LINE
  5
121
330
11D
100
AcDbEntity
  8
005
 62
     0
100
AcDbLine
 10
-0.8464499842
 20
5.4323199438
 30
0.0
 11
17.7262022626
 21
5.4323199438
 31
0.0
  0
LINE
  5
122
330
11D
100
AcDbEntity
  8
005
 62
     0
100
AcDbLine
 10
17.7262022626
 20
5.4323199438
 30
0.0
 11
17.7262022626
 21
0.0000001164
 31
0.0
  0
LINE
  5
123
330
11D
100
AcDbEntity
  8
005
 62
     0
100
AcDbLine
 10
17.7262022626
 20
0.0000001164
 30
0.0
 11
-0.8464499842
 21
0.0000001164
 31
0.0
  0
MTEXT
  5
124
330
11D
100
AcDbEntity
  8
005
 62
     0
100
AcDbMText
 10
0.0
 20
5.7135607243
 30
0.0
 40
4.43232
 41
0.0
 71
     1
 72
     1
  1
平面図
  7
SLDTEXTSTYLE3
 73
     1
 44
1.0
  0
ENDBLK
  5
11F
330
11D
100
AcDbEntity
  8
0
100
AcDbBlockEnd
  0
BLOCK
  5
127
330
126
100
AcDbEntity
  8
0
100
AcDbBlockBegin
  2
SW_NOTE_0_8
 70
     0
 10
0.0
 20
0.0
 30
0.0
  3
SW_NOTE_0_8
  1

  0
LINE
  5
129
330
126
100
AcDbEntity
  8
005
 62
     0
100
AcDbLine
 10
-0.0508997716
 20
0.1699085428
 30
0.0
 11
-0.0508997716
 21
5.3694248669
 31
0.0
  0
LINE
  5
12A
330
126
100
AcDbEntity
  8
005
 62
     0
100
AcDbLine
 10
-0.0508997716
 20
5.3694248669
 30
0.0
 11
17.8451099019
 21
5.3694248669
 31
0.0
  0
LINE
  5
12B
330
126
100
AcDbEntity
  8
005
 62
     0
100
AcDbLine
 10
17.8451099019
 20
5.3694248669
 30
0.0
 11
17.8451099019
 21
0.1699085428
 31
0.0
  0
LINE
  5
12C
330
126
100
AcDbEntity
  8
005
 62
     0
100
AcDbLine
 10
17.8451099019
 20
0.1699085428
 30
0.0
 11
-0.0508997716
 21
0.1699085428
 31
0.0
  0
MTEXT
  5
12D
330
126
100
AcDbEntity
  8
005
 62
     0
100
AcDbMText
 10
0.0
 20
5.7135607243
 30
0.0
 40
4.43232
 41
0.0
 71
     1
 72
     1
  1
側面図
  7
SLDTEXTSTYLE3
 73
     1
 44
1.0
  0
ENDBLK
  5
128
330
126
100
AcDbEntity
  8
0
100
AcDbBlockEnd
  0
BLOCK
  5
16F
330
16E
100
AcDbEntity
  8
0
100
AcDbBlockBegin
  2
_Open30
 70
     0
 10
0.0
 20
0.0
 30
0.0
  3
_Open30
  1

  0
LINE
  5
171
330
16E
100
AcDbEntity
  8
0
  6
ByBlock
 62
     0
370
    -2
100
AcDbLine
 10
-1.0
 20
0.267949
 30
0.0
 11
0.0
 21
0.0
 31
0.0
  0
LINE
  5
172
330
16E
100
AcDbEntity
  8
0
  6
ByBlock
 62
     0
370
    -2
100
AcDbLine
 10
0.0
 20
0.0
 30
0.0
 11
-1.0
 21
-0.267949
 31
0.0
  0
LINE
  5
173
330
16E
100
AcDbEntity
  8
0
  6
ByBlock
 62
     0
370
    -2
100
AcDbLine
 10
0.0
 20
0.0
 30
0.0
 11
-1.0
 21
0.0
 31
0.0
  0
ENDBLK
  5
170
330
16E
100
AcDbEntity
  8
0
100
AcDbBlockEnd
  0
BLOCK
  5
175
330
174
100
AcDbEntity
  8
0
100
AcDbBlockBegin
  2
_D
 70
     0
 10
0.0
 20
0.0
 30
0.0
  3
_D
  1

  0
INSERT
  5
177
330
174
100
AcDbEntity
  8
004
100
AcDbBlockReference
  2
_Open30
 10
209.9848364931
 20
92.1756674246
 30
21.0
 41
3.302
 42
3.302
 50
270.0
  0
INSERT
  5
178
330
174
100
AcDbEntity
  8
004
100
AcDbBlockReference
  2
_Open30
 10
209.9848364931
 20
147.7260864092
 30
21.0
 41
3.302
 42
3.302
 50
90.0
  0
LINE
  5
179
330
174
100
AcDbEntity
  8
004
100
AcDbLine
 10
190.6363745978
 20
92.1756674246
 30
0.0
 11
210.9848364931
 21
92.1756674246
 31
0.0
  0
LINE
  5
17A
330
174
100
AcDbEntity
  8
004
100
AcDbLine
 10
199.8848786706
 20
147.7260864092
 30
0.0
 11
210.9848364931
 21
147.7260864092
 31
0.0
  0
LINE
  5
17B
330
174
100
AcDbEntity
  8
004
100
AcDbLine
 10
209.9848364931
 20
92.1756674246
 30
0.0
 11
209.9848364931
 21
147.7260864092
 31
0.0
  0
MTEXT
  5
17C
330
174
100
AcDbEntity
  8
004
100
AcDbMText
 10
205.4730996367
 20
122.1448969151
 30
0.0
 40
3.5
 41
0.0
 71
     1
 72
     1
  1
55.6
  7
SLDTEXTSTYLE4
 11
-8.269460797427576E-16
 21
1.0
 31
0.0
 73
     1
 44
1.0
  0
ENDBLK
  5
176
330
174
100
AcDbEntity
  8
0
100
AcDbBlockEnd
  0
BLOCK
  5
17F
330
17E
100
AcDbEntity
  8
0
100
AcDbBlockBegin
  2
_D_1
 70
     0
 10
0.0
 20
0.0
 30
0.0
  3
_D_1
  1

  0
INSERT
  5
181
330
17E
100
AcDbEntity
  8
004
100
AcDbBlockReference
  2
_Open30
 10
111.9198958646
 20
138.7260864092
 30
21.0
 41
3.302
 42
3.302
 50
90.0
  0
INSERT
  5
182
330
17E
100
AcDbEntity
  8
004
100
AcDbBlockReference
  2
_Open30
 10
111.9198958646
 20
107.7260864092
 30
21.0
 41
3.302
 42
3.302
 50
270.0
  0
LINE
  5
183
330
17E
100
AcDbEntity
  8
004
100
AcDbLine
 10
148.3848786706
 20
138.7260864092
 30
0.0
 11
110.9198958646
 21
138.7260864092
 31
0.0
  0
LINE
  5
184
330
17E
100
AcDbEntity
  8
004
100
AcDbLine
 10
119.8848786706
 20
107.7260864092
 30
0.0
 11
110.9198958646
 21
107.7260864092
 31
0.0
  0
LINE
  5
185
330
17E
100
AcDbEntity
  8
004
100
AcDbLine
 10
111.9198958646
 20
138.7260864092
 30
0.0
 11
111.9198958646
 21
107.7260864092
 31
0.0
  0
MTEXT
  5
186
330
17E
100
AcDbEntity
  8
004
100
AcDbMText
 10
107.4081590083
 20
123.576494079
 30
0.0
 40
3.5
 41
0.0
 71
     1
 72
     1
  1
31
  7
SLDTEXTSTYLE4
 11
-7.044195017643634E-15
 21
1.0
 31
0.0
 73
     1
 44
1.0
  0
ENDBLK
  5
180
330
17E
100
AcDbEntity
  8
0
100
AcDbBlockEnd
  0
BLOCK
  5
1A5
330
1A4
100
AcDbEntity
  8
0
100
AcDbBlockBegin
  2
_D_2
 70
     0
 10
0.0
 20
0.0
 30
0.0
  3
_D_2
  1

  0
INSERT
  5
1A7
330
1A4
100
AcDbEntity
  8
004
100
AcDbBlockReference
  2
_Open30
 10
120.8848786706
 20
185.4323318333
 30
0.0
 41
3.302
 42
3.302
 50
180.0
  0
INSERT
  5
1A8
330
1A4
100
AcDbEntity
  8
004
100
AcDbBlockReference
  2
_Open30
 10
198.8848786706
 20
185.4323318333
 30
0.0
 41
3.302
 42
3.302
 50
0.0
  0
LINE
  5
1A9
330
1A4
100
AcDbEntity
  8
004
100
AcDbLine
 10
120.8848786706
 20
208.4323318333
 30
0.0
 11
120.8848786706
 21
184.4323318333
 31
0.0
  0
LINE
  5
1AA
330
1A4
100
AcDbEntity
  8
004
100
AcDbLine
 10
198.8848786706
 20
210.4757787435
 30
0.0
 11
198.8848786706
 21
184.4323318333
 31
0.0
  0
LINE
  5
1AB
330
1A4
100
AcDbEntity
  8
004
100
AcDbLine
 10
120.8848786706
 20
185.4323318333
 30
0.0
 11
198.8848786706
 21
185.4323318333
 31
0.0
  0
MTEXT
  5
1AC
330
1A4
100
AcDbEntity
  8
004
100
AcDbMText
 10
157.8501327315
 20
189.9440686897
 30
0.0
 40
3.5
 41
0.0
 71
     1
 72
     1
  1
78
  7
SLDTEXTSTYLE4
 73
     1
 44
1.0
  0
ENDBLK
  5
1A6
330
1A4
100
AcDbEntity
  8
0
100
AcDbBlockEnd
  0
BLOCK
  5
1AF
330
1AE
100
AcDbEntity
  8
0
100
AcDbBlockBegin
  2
_D_3
 70
     0
 10
0.0
 20
0.0
 30
0.0
  3
_D_3
  1

  0
INSERT
  5
1B1
330
1AE
100
AcDbEntity
  8
004
100
AcDbBlockReference
  2
_Open30
 10
120.8848786706
 20
191.4323318333
 30
-12.2108753249
 41
3.302
 42
3.302
 50
180.0
  0
INSERT
  5
1B2
330
1AE
100
AcDbEntity
  8
004
100
AcDbBlockReference
  2
_Open30
 10
197.3848786706
 20
191.4323318333
 30
-12.2108753249
 41
3.302
 42
3.302
 50
0.0
  0
LINE
  5
1B3
330
1AE
100
AcDbEntity
  8
004
100
AcDbLine
 10
120.8848786706
 20
208.4323318333
 30
0.0
 11
120.8848786706
 21
190.4323318333
 31
0.0
  0
LINE
  5
1B4
330
1AE
100
AcDbEntity
  8
004
100
AcDbLine
 10
197.3848786706
 20
208.4323318333
 30
0.0
 11
197.3848786706
 21
190.4323318333
 31
0.0
  0
LINE
  5
1B5
330
1AE
100
AcDbEntity
  8
004
100
AcDbLine
 10
120.8848786706
 20
191.4323318333
 30
0.0
 11
197.3848786706
 21
191.4323318333
 31
0.0
  0
MTEXT
  5
1B6
330
1AE
100
AcDbEntity
  8
004
100
AcDbMText
 10
156.4185355676
 20
195.9440686897
 30
0.0
 40
3.5
 41
0.0
 71
     1
 72
     1
  1
76.5
  7
SLDTEXTSTYLE4
 73
     1
 44
1.0
  0
ENDBLK
  5
1B0
330
1AE
100
AcDbEntity
  8
0
100
AcDbBlockEnd
  0
BLOCK
  5
1B9
330
1B8
100
AcDbEntity
  8
0
100
AcDbBlockBegin
  2
_D_4
 70
     0
 10
0.0
 20
0.0
 30
0.0
  3
_D_4
  1

  0
INSERT
  5
1BB
330
1B8
100
AcDbEntity
  8
004
100
AcDbBlockReference
  2
_Open30
 10
110.8848786706
 20
249.4323318333
 30
-12.2108753249
 41
3.302
 42
3.302
 50
90.0
  0
INSERT
  5
1BC
330
1B8
100
AcDbEntity
  8
004
100
AcDbBlockReference
  2
_Open30
 10
110.8848786706
 20
207.4323318333
 30
-12.2108753249
 41
3.302
 42
3.302
 50
270.0
  0
LINE
  5
1BD
330
1B8
100
AcDbEntity
  8
004
100
AcDbLine
 10
146.6848786706
 20
249.4323318333
 30
0.0
 11
109.8848786706
 21
249.4323318333
 31
0.0
  0
LINE
  5
1BE
330
1B8
100
AcDbEntity
  8
004
100
AcDbLine
 10
146.6848786706
 20
207.4323318333
 30
0.0
 11
109.8848786706
 21
207.4323318333
 31
0.0
  0
LINE
  5
1BF
330
1B8
100
AcDbEntity
  8
004
100
AcDbLine
 10
110.8848786706
 20
249.4323318333
 30
0.0
 11
110.8848786706
 21
207.4323318333
 31
0.0
  0
MTEXT
  5
1C0
330
1B8
100
AcDbEntity
  8
004
100
AcDbMText
 10
106.3731418142
 20
225.5014586882
 30
0.0
 40
3.5
 41
0.0
 71
     1
 72
     1
  1
42
  7
SLDTEXTSTYLE4
 11
-5.267838178243384E-15
 21
1.0
 31
0.0
 73
     1
 44
1.0
  0
ENDBLK
  5
1BA
330
1B8
100
AcDbEntity
  8
0
100
AcDbBlockEnd
  0
BLOCK
  5
1C4
330
1C3
100
AcDbEntity
  8
0
100
AcDbBlockBegin
  2
_None
 70
     0
 10
0.0
 20
0.0
 30
0.0
  3
_None
  1

  0
ENDBLK
  5
1C5
330
1C3
100
AcDbEntity
  8
0
100
AcDbBlockEnd
  0
BLOCK
  5
1C7
330
1C6
100
AcDbEntity
  8
0
100
AcDbBlockBegin
  2
_D_5
 70
     0
 10
0.0
 20
0.0
 30
0.0
  3
_D_5
  1

  0
INSERT
  5
1C9
330
1C6
100
AcDbEntity
  8
004
100
AcDbBlockReference
  2
_Open30
 10
161.1848786705
 20
233.628484256
 30
-12.2108753249
 41
3.302
 42
3.302
 50
240.0
  0
LINE
  5
1CA
330
1C6
100
AcDbEntity
  8
004
100
AcDbLine
 10
161.1848786705
 20
233.628484256
 30
0.0
 11
180.0277872364
 21
266.2653592546
 31
0.0
  0
LINE
  5
1CB
330
1C6
100
AcDbEntity
  8
004
100
AcDbLine
 10
161.1848786705
 20
233.628484256
 30
0.0
 11
155.1848786705
 21
223.2361794106
 31
0.0
  0
MTEXT
  5
1CC
330
1C6
100
AcDbEntity
  8
004
100
AcDbMText
 10
170.1168721196
 20
258.1112154913
 30
0.0
 40
3.5
 41
0.0
 71
     1
 72
     1
  1
%%c
  7
SLDTEXTSTYLE4
 11
0.4999999999999982
 21
0.8660254037844397
 31
0.0
 73
     1
 44
1.0
  0
MTEXT
  5
1CD
330
1C6
100
AcDbEntity
  8
004
100
AcDbMText
 10
172.0518373771
 20
261.4626736282
 30
0.0
 40
3.5
 41
0.0
 71
     1
 72
     1
  1
12
  7
SLDTEXTSTYLE4
 11
0.4999999999999982
 21
0.8660254037844397
 31
0.0
 73
     1
 44
1.0
  0
MTEXT
  5
1CE
330
1C6
100
AcDbEntity
  8
004
100
AcDbMText
 10
174.088642991
 20
264.9905244366
 30
0.0
 40
3.5
 41
0.0
 71
     1
 72
     1
  1
穴
  7
SLDTEXTSTYLE4
 11
0.4999999999999982
 21
0.8660254037844397
 31
0.0
 73
     1
 44
1.0
  0
ENDBLK
  5
1C8
330
1C6
100
AcDbEntity
  8
0
100
AcDbBlockEnd
  0
BLOCK
  5
1D0
330
1CF
100
AcDbEntity
  8
0
100
AcDbBlockBegin
  2
SW_CENTERMARKSYMBOL_0
 70
     0
 10
0.0
 20
0.0
 30
0.0
  3
SW_CENTERMARKSYMBOL_0
  1

  0
LINE
  5
1D2
330
1CF
100
AcDbEntity
  8
004
 62
     0
100
AcDbLine
 10
0.0
 20
0.0
 30
0.0
 11
0.0
 21
2.5
 31
0.0
  0
LINE
  5
1D3
330
1CF
100
AcDbEntity
  8
004
 62
     0
100
AcDbLine
 10
0.0
 20
0.0
 30
0.0
 11
-2.5
 21
0.0
 31
0.0
  0
LINE
  5
1D4
330
1CF
100
AcDbEntity
  8
004
 62
     0
100
AcDbLine
 10
0.0
 20
0.0
 30
0.0
 11
0.0
 21
-2.5
 31
0.0
  0
LINE
  5
1D5
330
1CF
100
AcDbEntity
  8
004
 62
     0
100
AcDbLine
 10
0.0
 20
0.0
 30
0.0
 11
2.5
 21
0.0
 31
0.0
  0
LINE
  5
1D6
330
1CF
100
AcDbEntity
  8
004
 62
     0
100
AcDbLine
 10
0.0
 20
5.0
 30
0.0
 11
0.0
 21
8.5
 31
0.0
  0
LINE
  5
1D7
330
1CF
100
AcDbEntity
  8
004
 62
     0
100
AcDbLine
 10
-5.0
 20
0.0
 30
0.0
 11
-8.5
 21
0.0
 31
0.0
  0
LINE
  5
1D8
330
1CF
100
AcDbEntity
  8
004
 62
     0
100
AcDbLine
 10
0.0
 20
-5.0
 30
0.0
 11
0.0
 21
-8.5
 31
0.0
  0
LINE
  5
1D9
330
1CF
100
AcDbEntity
  8
004
 62
     0
100
AcDbLine
 10
5.0
 20
0.0
 30
0.0
 11
8.5
 21
0.0
 31
0.0
  0
ENDBLK
  5
1D1
330
1CF
100
AcDbEntity
  8
0
100
AcDbBlockEnd
  0
BLOCK
  5
1DC
330
1DB
100
AcDbEntity
  8
0
100
AcDbBlockBegin
  2
SW_CENTERMARKSYMBOL_1
 70
     0
 10
0.0
 20
0.0
 30
0.0
  3
SW_CENTERMARKSYMBOL_1
  1

  0
LINE
  5
1DE
330
1DB
100
AcDbEntity
  8
004
 62
     0
100
AcDbLine
 10
0.0
 20
0.0
 30
0.0
 11
0.0
 21
2.5
 31
0.0
  0
LINE
  5
1DF
330
1DB
100
AcDbEntity
  8
004
 62
     0
100
AcDbLine
 10
0.0
 20
0.0
 30
0.0
 11
-2.5
 21
0.0
 31
0.0
  0
LINE
  5
1E0
330
1DB
100
AcDbEntity
  8
004
 62
     0
100
AcDbLine
 10
0.0
 20
0.0
 30
0.0
 11
0.0
 21
-2.5
 31
0.0
  0
LINE
  5
1E1
330
1DB
100
AcDbEntity
  8
004
 62
     0
100
AcDbLine
 10
0.0
 20
0.0
 30
0.0
 11
2.5
 21
0.0
 31
0.0
  0
LINE
  5
1E2
330
1DB
100
AcDbEntity
  8
004
 62
     0
100
AcDbLine
 10
0.0
 20
2.5
 30
0.0
 11
0.0
 21
4.6
 31
0.0
  0
LINE
  5
1E3
330
1DB
100
AcDbEntity
  8
004
 62
     0
100
AcDbLine
 10
-2.5
 20
0.0
 30
0.0
 11
-4.6
 21
0.0
 31
0.0
  0
LINE
  5
1E4
330
1DB
100
AcDbEntity
  8
004
 62
     0
100
AcDbLine
 10
0.0
 20
-2.5
 30
0.0
 11
0.0
 21
-4.6
 31
0.0
  0
LINE
  5
1E5
330
1DB
100
AcDbEntity
  8
004
 62
     0
100
AcDbLine
 10
2.5
 20
0.0
 30
0.0
 11
4.6
 21
0.0
 31
0.0
  0
ENDBLK
  5
1DD
330
1DB
100
AcDbEntity
  8
0
100
AcDbBlockEnd
  0
BLOCK
  5
1E8
330
1E7
100
AcDbEntity
  8
0
100
AcDbBlockBegin
  2
SW_CENTERMARKSYMBOL_2
 70
     0
 10
0.0
 20
0.0
 30
0.0
  3
SW_CENTERMARKSYMBOL_2
  1

  0
LINE
  5
1EA
330
1E7
100
AcDbEntity
  8
004
 62
     0
100
AcDbLine
 10
0.0
 20
0.0
 30
0.0
 11
0.0
 21
2.5
 31
0.0
  0
LINE
  5
1EB
330
1E7
100
AcDbEntity
  8
004
 62
     0
100
AcDbLine
 10
0.0
 20
0.0
 30
0.0
 11
-2.5
 21
0.0
 31
0.0
  0
LINE
  5
1EC
330
1E7
100
AcDbEntity
  8
004
 62
     0
100
AcDbLine
 10
0.0
 20
0.0
 30
0.0
 11
0.0
 21
-2.5
 31
0.0
  0
LINE
  5
1ED
330
1E7
100
AcDbEntity
  8
004
 62
     0
100
AcDbLine
 10
0.0
 20
0.0
 30
0.0
 11
2.5
 21
0.0
 31
0.0
  0
LINE
  5
1EE
330
1E7
100
AcDbEntity
  8
004
 62
     0
100
AcDbLine
 10
0.0
 20
2.5
 30
0.0
 11
0.0
 21
4.6
 31
0.0
  0
LINE
  5
1EF
330
1E7
100
AcDbEntity
  8
004
 62
     0
100
AcDbLine
 10
-2.5
 20
0.0
 30
0.0
 11
-4.6
 21
0.0
 31
0.0
  0
LINE
  5
1F0
330
1E7
100
AcDbEntity
  8
004
 62
     0
100
AcDbLine
 10
0.0
 20
-2.5
 30
0.0
 11
0.0
 21
-4.6
 31
0.0
  0
LINE
  5
1F1
330
1E7
100
AcDbEntity
  8
004
 62
     0
100
AcDbLine
 10
2.5
 20
0.0
 30
0.0
 11
4.6
 21
0.0
 31
0.0
  0
ENDBLK
  5
1E9
330
1E7
100
AcDbEntity
  8
0
100
AcDbBlockEnd
  0
BLOCK
  5
1F4
330
1F3
100
AcDbEntity
  8
0
100
AcDbBlockBegin
  2
SW_CENTERMARKSYMBOL_3
 70
     0
 10
0.0
 20
0.0
 30
0.0
  3
SW_CENTERMARKSYMBOL_3
  1

  0
LINE
  5
1F6
330
1F3
100
AcDbEntity
  8
004
 62
     0
100
AcDbLine
 10
0.0
 20
0.0
 30
0.0
 11
0.0
 21
2.5
 31
0.0
  0
LINE
  5
1F7
330
1F3
100
AcDbEntity
  8
004
 62
     0
100
AcDbLine
 10
0.0
 20
0.0
 30
0.0
 11
-2.5
 21
0.0
 31
0.0
  0
LINE
  5
1F8
330
1F3
100
AcDbEntity
  8
004
 62
     0
100
AcDbLine
 10
0.0
 20
0.0
 30
0.0
 11
0.0
 21
-2.5
 31
0.0
  0
LINE
  5
1F9
330
1F3
100
AcDbEntity
  8
004
 62
     0
100
AcDbLine
 10
0.0
 20
0.0
 30
0.0
 11
2.5
 21
0.0
 31
0.0
  0
LINE
  5
1FA
330
1F3
100
AcDbEntity
  8
004
 62
     0
100
AcDbLine
 10
0.0
 20
2.5
 30
0.0
 11
0.0
 21
4.25
 31
0.0
  0
LINE
  5
1FB
330
1F3
100
AcDbEntity
  8
004
 62
     0
100
AcDbLine
 10
-2.5
 20
0.0
 30
0.0
 11
-4.25
 21
0.0
 31
0.0
  0
LINE
  5
1FC
330
1F3
100
AcDbEntity
  8
004
 62
     0
100
AcDbLine
 10
0.0
 20
-2.5
 30
0.0
 11
0.0
 21
-4.25
 31
0.0
  0
LINE
  5
1FD
330
1F3
100
AcDbEntity
  8
004
 62
     0
100
AcDbLine
 10
2.5
 20
0.0
 30
0.0
 11
4.25
 21
0.0
 31
0.0
  0
ENDBLK
  5
1F5
330
1F3
100
AcDbEntity
  8
0
100
AcDbBlockEnd
  0
BLOCK
  5
200
330
1FF
100
AcDbEntity
  8
0
100
AcDbBlockBegin
  2
SW_CENTERMARKSYMBOL_4
 70
     0
 10
0.0
 20
0.0
 30
0.0
  3
SW_CENTERMARKSYMBOL_4
  1

  0
LINE
  5
202
330
1FF
100
AcDbEntity
  8
004
 62
     0
100
AcDbLine
 10
0.0
 20
0.0
 30
0.0
 11
0.0
 21
2.5
 31
0.0
  0
LINE
  5
203
330
1FF
100
AcDbEntity
  8
004
 62
     0
100
AcDbLine
 10
0.0
 20
0.0
 30
0.0
 11
-2.5
 21
0.0
 31
0.0
  0
LINE
  5
204
330
1FF
100
AcDbEntity
  8
004
 62
     0
100
AcDbLine
 10
0.0
 20
0.0
 30
0.0
 11
0.0
 21
-2.5
 31
0.0
  0
LINE
  5
205
330
1FF
100
AcDbEntity
  8
004
 62
     0
100
AcDbLine
 10
0.0
 20
0.0
 30
0.0
 11
2.5
 21
0.0
 31
0.0
  0
LINE
  5
206
330
1FF
100
AcDbEntity
  8
004
 62
     0
100
AcDbLine
 10
0.0
 20
2.5
 30
0.0
 11
0.0
 21
4.6
 31
0.0
  0
LINE
  5
207
330
1FF
100
AcDbEntity
  8
004
 62
     0
100
AcDbLine
 10
-2.5
 20
0.0
 30
0.0
 11
-4.6
 21
0.0
 31
0.0
  0
LINE
  5
208
330
1FF
100
AcDbEntity
  8
004
 62
     0
100
AcDbLine
 10
0.0
 20
-2.5
 30
0.0
 11
0.0
 21
-4.6
 31
0.0
  0
LINE
  5
209
330
1FF
100
AcDbEntity
  8
004
 62
     0
100
AcDbLine
 10
2.5
 20
0.0
 30
0.0
 11
4.6
 21
0.0
 31
0.0
  0
ENDBLK
  5
201
330
1FF
100
AcDbEntity
  8
0
100
AcDbBlockEnd
  0
BLOCK
  5
20C
330
20B
100
AcDbEntity
  8
0
100
AcDbBlockBegin
  2
SW_CENTERMARKSYMBOL_5
 70
     0
 10
0.0
 20
0.0
 30
0.0
  3
SW_CENTERMARKSYMBOL_5
  1

  0
LINE
  5
20E
330
20B
100
AcDbEntity
  8
004
 62
     0
100
AcDbLine
 10
0.0
 20
0.0
 30
0.0
 11
0.0
 21
2.5
 31
0.0
  0
LINE
  5
20F
330
20B
100
AcDbEntity
  8
004
 62
     0
100
AcDbLine
 10
0.0
 20
0.0
 30
0.0
 11
-2.5
 21
0.0
 31
0.0
  0
LINE
  5
210
330
20B
100
AcDbEntity
  8
004
 62
     0
100
AcDbLine
 10
0.0
 20
0.0
 30
0.0
 11
0.0
 21
-2.5
 31
0.0
  0
LINE
  5
211
330
20B
100
AcDbEntity
  8
004
 62
     0
100
AcDbLine
 10
0.0
 20
0.0
 30
0.0
 11
2.5
 21
0.0
 31
0.0
  0
LINE
  5
212
330
20B
100
AcDbEntity
  8
004
 62
     0
100
AcDbLine
 10
0.0
 20
2.5
 30
0.0
 11
0.0
 21
4.6
 31
0.0
  0
LINE
  5
213
330
20B
100
AcDbEntity
  8
004
 62
     0
100
AcDbLine
 10
-2.5
 20
0.0
 30
0.0
 11
-4.6
 21
0.0
 31
0.0
  0
LINE
  5
214
330
20B
100
AcDbEntity
  8
004
 62
     0
100
AcDbLine
 10
0.0
 20
-2.5
 30
0.0
 11
0.0
 21
-4.6
 31
0.0
  0
LINE
  5
215
330
20B
100
AcDbEntity
  8
004
 62
     0
100
AcDbLine
 10
2.5
 20
0.0
 30
0.0
 11
4.6
 21
0.0
 31
0.0
  0
ENDBLK
  5
20D
330
20B
100
AcDbEntity
  8
0
100
AcDbBlockEnd
  0
BLOCK
  5
218
330
217
100
AcDbEntity
  8
0
100
AcDbBlockBegin
  2
SW_CENTERMARKSYMBOL_6
 70
     0
 10
0.0
 20
0.0
 30
0.0
  3
SW_CENTERMARKSYMBOL_6
  1

  0
LINE
  5
21A
330
217
100
AcDbEntity
  8
004
 62
     0
100
AcDbLine
 10
0.0
 20
0.0
 30
0.0
 11
0.0
 21
2.5
 31
0.0
  0
LINE
  5
21B
330
217
100
AcDbEntity
  8
004
 62
     0
100
AcDbLine
 10
0.0
 20
0.0
 30
0.0
 11
-2.5
 21
0.0
 31
0.0
  0
LINE
  5
21C
330
217
100
AcDbEntity
  8
004
 62
     0
100
AcDbLine
 10
0.0
 20
0.0
 30
0.0
 11
0.0
 21
-2.5
 31
0.0
  0
LINE
  5
21D
330
217
100
AcDbEntity
  8
004
 62
     0
100
AcDbLine
 10
0.0
 20
0.0
 30
0.0
 11
2.5
 21
0.0
 31
0.0
  0
LINE
  5
21E
330
217
100
AcDbEntity
  8
004
 62
     0
100
AcDbLine
 10
0.0
 20
2.5
 30
0.0
 11
0.0
 21
4.25
 31
0.0
  0
LINE
  5
21F
330
217
100
AcDbEntity
  8
004
 62
     0
100
AcDbLine
 10
-2.5
 20
0.0
 30
0.0
 11
-4.25
 21
0.0
 31
0.0
  0
LINE
  5
220
330
217
100
AcDbEntity
  8
004
 62
     0
100
AcDbLine
 10
0.0
 20
-2.5
 30
0.0
 11
0.0
 21
-4.25
 31
0.0
  0
LINE
  5
221
330
217
100
AcDbEntity
  8
004
 62
     0
100
AcDbLine
 10
2.5
 20
0.0
 30
0.0
 11
4.25
 21
0.0
 31
0.0
  0
ENDBLK
  5
219
330
217
100
AcDbEntity
  8
0
100
AcDbBlockEnd
  0
BLOCK
  5
224
330
223
100
AcDbEntity
  8
0
100
AcDbBlockBegin
  2
SW_CENTERMARKSYMBOL_7
 70
     0
 10
0.0
 20
0.0
 30
0.0
  3
SW_CENTERMARKSYMBOL_7
  1

  0
LINE
  5
226
330
223
100
AcDbEntity
  8
004
 62
     0
100
AcDbLine
 10
0.0
 20
0.0
 30
0.0
 11
0.0
 21
2.5
 31
0.0
  0
LINE
  5
227
330
223
100
AcDbEntity
  8
004
 62
     0
100
AcDbLine
 10
0.0
 20
0.0
 30
0.0
 11
-2.5
 21
0.0
 31
0.0
  0
LINE
  5
228
330
223
100
AcDbEntity
  8
004
 62
     0
100
AcDbLine
 10
0.0
 20
0.0
 30
0.0
 11
0.0
 21
-2.5
 31
0.0
  0
LINE
  5
229
330
223
100
AcDbEntity
  8
004
 62
     0
100
AcDbLine
 10
0.0
 20
0.0
 30
0.0
 11
2.5
 21
0.0
 31
0.0
  0
LINE
  5
22A
330
223
100
AcDbEntity
  8
004
 62
     0
100
AcDbLine
 10
0.0
 20
5.0
 30
0.0
 11
0.0
 21
11.5
 31
0.0
  0
LINE
  5
22B
330
223
100
AcDbEntity
  8
004
 62
     0
100
AcDbLine
 10
-5.0
 20
0.0
 30
0.0
 11
-11.5
 21
0.0
 31
0.0
  0
LINE
  5
22C
330
223
100
AcDbEntity
  8
004
 62
     0
100
AcDbLine
 10
0.0
 20
-5.0
 30
0.0
 11
0.0
 21
-11.5
 31
0.0
  0
LINE
  5
22D
330
223
100
AcDbEntity
  8
004
 62
     0
100
AcDbLine
 10
5.0
 20
0.0
 30
0.0
 11
11.5
 21
0.0
 31
0.0
  0
ENDBLK
  5
225
330
223
100
AcDbEntity
  8
0
100
AcDbBlockEnd
  0
BLOCK
  5
271
330
270
100
AcDbEntity
  8
0
100
AcDbBlockBegin
  2
_D_6
 70
     0
 10
0.0
 20
0.0
 30
0.0
  3
_D_6
  1

  0
INSERT
  5
273
330
270
100
AcDbEntity
  8
004
100
AcDbBlockReference
  2
_Open30
 10
304.1506488035
 20
157.7260864092
 30
-11.5499789113
 41
3.302
 42
3.302
 50
180.0
  0
INSERT
  5
274
330
270
100
AcDbEntity
  8
004
100
AcDbBlockReference
  2
_Open30
 10
322.1506488035
 20
157.7260864092
 30
-11.5499789113
 41
3.302
 42
3.302
 50
0.0
  0
LINE
  5
275
330
270
100
AcDbEntity
  8
004
100
AcDbLine
 10
304.1506488035
 20
148.7260864092
 30
0.0
 11
304.1506488035
 21
158.7260864092
 31
0.0
  0
LINE
  5
276
330
270
100
AcDbEntity
  8
004
100
AcDbLine
 10
322.1506488035
 20
148.7260864092
 30
0.0
 11
322.1506488035
 21
158.7260864092
 31
0.0
  0
LINE
  5
277
330
270
100
AcDbEntity
  8
004
100
AcDbLine
 10
304.1506488035
 20
157.7260864092
 30
0.0
 11
322.1506488035
 21
157.7260864092
 31
0.0
  0
MTEXT
  5
278
330
270
100
AcDbEntity
  8
004
100
AcDbMText
 10
309.1052427724
 20
162.2378237312
 30
0.0
 40
3.5
 41
0.0
 71
     1
 72
     1
  1
%%c
  7
SLDTEXTSTYLE4
 73
     1
 44
1.0
  0
MTEXT
  5
279
330
270
100
AcDbEntity
  8
004
100
AcDbMText
 10
312.9751732875
 20
162.2378237312
 30
0.0
 40
3.5
 41
0.0
 71
     1
 72
     1
  1
18
  7
SLDTEXTSTYLE4
 73
     1
 44
1.0
  0
ENDBLK
  5
272
330
270
100
AcDbEntity
  8
0
100
AcDbBlockEnd
  0
ENDSEC
  0
SECTION
  2
ENTITIES
  0
LINE
  5
DA
330
1F
100
AcDbEntity
  8
006
100
AcDbLine
 10
265.9380494457
 20
22.5354430994
 30
0.0
 11
265.9380494457
 21
29.1196030994
 31
0.0
  0
LINE
  5
DB
330
1F
100
AcDbEntity
  8
006
100
AcDbLine
 10
264.2581364457
 20
28.2139530994
 30
0.0
 11
256.9164299457
 21
20.8722460994
 31
0.0
  0
LINE
  5
DC
330
1F
100
AcDbEntity
  8
006
100
AcDbLine
 10
260.9316594757
 20
28.2138695394
 30
0.0
 11
253.4571479757
 21
20.7393580394
 31
0.0
  0
LINE
  5
DD
330
1F
100
AcDbEntity
  8
006
100
AcDbLine
 10
258.4772199426
 20
28.3801896045
 30
0.0
 11
250.9259296208
 21
20.8288989334
 31
0.0
  0
LINE
  5
DE
330
1F
100
AcDbEntity
  8
002
100
AcDbLine
 10
352.3976989109
 20
402.6619241667
 30
0.0
 11
361.3976989109
 21
402.6619241667
 31
0.0
  0
LINE
  5
DF
330
1F
100
AcDbEntity
  8
002
100
AcDbLine
 10
361.3976989109
 20
408.6619241667
 30
0.0
 11
352.3976989109
 21
408.6619241667
 31
0.0
  0
LINE
  5
E0
330
1F
100
AcDbEntity
  8
002
100
AcDbLine
 10
350.3976989109
 20
402.3419936667
 30
0.0
 11
350.3976989109
 21
408.9818541667
 31
0.0
  0
LINE
  5
E1
330
1F
100
AcDbEntity
  8
002
100
AcDbLine
 10
352.3976989109
 20
408.6619241667
 30
0.0
 11
352.3976989109
 21
402.6619241667
 31
0.0
  0
LINE
  5
E2
330
1F
100
AcDbEntity
  8
002
100
AcDbLine
 10
353.6476989109
 20
404.1619241667
 30
0.0
 11
353.6476989109
 21
407.1619241667
 31
0.0
  0
LINE
  5
E3
330
1F
100
AcDbEntity
  8
002
100
AcDbLine
 10
352.9976989109
 20
404.1619241667
 30
0.0
 11
352.9976989109
 21
407.1619241667
 31
0.0
  0
LINE
  5
E4
330
1F
100
AcDbEntity
  8
002
100
AcDbLine
 10
352.9976989109
 20
404.1619241667
 30
0.0
 11
353.6476989109
 21
404.1619241667
 31
0.0
  0
LINE
  5
E5
330
1F
100
AcDbEntity
  8
002
100
AcDbLine
 10
352.9976989109
 20
403.9119241667
 30
0.0
 11
353.6476989109
 21
403.9119241667
 31
0.0
  0
LINE
  5
E6
330
1F
100
AcDbEntity
  8
002
100
AcDbLine
 10
352.9976989109
 20
403.9119241667
 30
0.0
 11
352.9976989109
 21
404.1619241667
 31
0.0
  0
LINE
  5
E7
330
1F
100
AcDbEntity
  8
002
100
AcDbLine
 10
353.6476989109
 20
403.9119241667
 30
0.0
 11
353.6476989109
 21
404.1619241667
 31
0.0
  0
LINE
  5
E8
330
1F
100
AcDbEntity
  8
002
100
AcDbLine
 10
352.9976989109
 20
407.4119241667
 30
0.0
 11
353.6476989109
 21
407.4119241667
 31
0.0
  0
LINE
  5
E9
330
1F
100
AcDbEntity
  8
002
100
AcDbLine
 10
352.9976989109
 20
407.1619241667
 30
0.0
 11
353.6476989109
 21
407.1619241667
 31
0.0
  0
LINE
  5
EA
330
1F
100
AcDbEntity
  8
002
100
AcDbLine
 10
352.9976989109
 20
407.1619241667
 30
0.0
 11
352.9976989109
 21
407.4119241667
 31
0.0
  0
LINE
  5
EB
330
1F
100
AcDbEntity
  8
002
100
AcDbLine
 10
353.6476989109
 20
407.1619241667
 30
0.0
 11
353.6476989109
 21
407.4119241667
 31
0.0
  0
LINE
  5
EC
330
1F
100
AcDbEntity
  8
002
100
AcDbLine
 10
363.3976987881
 20
402.3419935867
 30
0.0
 11
363.3976987881
 21
408.9818540867
 31
0.0
  0
LINE
  5
ED
330
1F
100
AcDbEntity
  8
002
100
AcDbLine
 10
354.8976984821
 20
400.6619240292
 30
0.0
 11
358.897698831
 21
400.6619240292
 31
0.0
  0
LINE
  5
EE
330
1F
100
AcDbEntity
  8
002
100
AcDbLine
 10
354.8976984821
 20
410.6619238043
 30
0.0
 11
358.897698831
 21
410.6619238043
 31
0.0
  0
LINE
  5
EF
330
1F
100
AcDbEntity
  8
002
100
AcDbLine
 10
361.3976989109
 20
402.6619241667
 30
0.0
 11
361.3976989109
 21
408.6619241667
 31
0.0
  0
LINE
  5
F0
330
1F
100
AcDbEntity
  8
002
100
AcDbLine
 10
360.1476989109
 20
404.1619241667
 30
0.0
 11
360.1476989109
 21
407.1619241667
 31
0.0
  0
LINE
  5
F1
330
1F
100
AcDbEntity
  8
002
100
AcDbLine
 10
360.7976989109
 20
404.1619241667
 30
0.0
 11
360.7976989109
 21
407.1619241667
 31
0.0
  0
LINE
  5
F2
330
1F
100
AcDbEntity
  8
002
100
AcDbLine
 10
360.1476989109
 20
403.9119241667
 30
0.0
 11
360.1476989109
 21
404.1619241667
 31
0.0
  0
LINE
  5
F3
330
1F
100
AcDbEntity
  8
002
100
AcDbLine
 10
360.7976989109
 20
403.9119241667
 30
0.0
 11
360.1476989109
 21
403.9119241667
 31
0.0
  0
LINE
  5
F4
330
1F
100
AcDbEntity
  8
002
100
AcDbLine
 10
360.7976989109
 20
403.9119241667
 30
0.0
 11
360.7976989109
 21
404.1619241667
 31
0.0
  0
LINE
  5
F5
330
1F
100
AcDbEntity
  8
002
100
AcDbLine
 10
360.7976989109
 20
404.1619241667
 30
0.0
 11
360.1476989109
 21
404.1619241667
 31
0.0
  0
LINE
  5
F6
330
1F
100
AcDbEntity
  8
002
100
AcDbLine
 10
360.1476989109
 20
407.1619241667
 30
0.0
 11
360.1476989109
 21
407.4119241667
 31
0.0
  0
LINE
  5
F7
330
1F
100
AcDbEntity
  8
002
100
AcDbLine
 10
360.7976989109
 20
407.1619241667
 30
0.0
 11
360.7976989109
 21
407.4119241667
 31
0.0
  0
LINE
  5
F8
330
1F
100
AcDbEntity
  8
002
100
AcDbLine
 10
360.7976989109
 20
407.4119241667
 30
0.0
 11
360.1476989109
 21
407.4119241667
 31
0.0
  0
LINE
  5
F9
330
1F
100
AcDbEntity
  8
002
100
AcDbLine
 10
360.7976989109
 20
407.1619241667
 30
0.0
 11
360.1476989109
 21
407.1619241667
 31
0.0
  0
LINE
  5
FA
330
1F
100
AcDbEntity
  8
006
100
AcDbLine
 10
252.1864049457
 20
21.6189510994
 30
0.0
 11
259.7376947675
 21
29.1702412705
 31
0.0
  0
LINE
  5
FB
330
1F
100
AcDbEntity
  8
006
100
AcDbLine
 10
255.3388406174
 20
21.6802042711
 30
0.0
 11
262.8468674457
 21
29.1882305994
 31
0.0
  0
LINE
  5
FC
330
1F
100
AcDbEntity
  8
006
100
AcDbLine
 10
256.9164299457
 20
20.8722460994
 30
0.0
 11
264.2748524457
 21
20.8722460994
 31
0.0
  0
ARC
  5
FD
330
1F
100
AcDbEntity
  8
002
100
AcDbCircle
 10
355.3128329066
 20
398.1688191698
 30
0.0
 40
12.4999999999997
100
AcDbArc
 50
91.903186
 51
109.904078
  0
ARC
  5
FE
330
1F
100
AcDbEntity
  8
002
100
AcDbCircle
 10
355.3128329066
 20
413.1550286637
 30
0.0
 40
12.49999999999971
100
AcDbArc
 50
250.095922
 51
268.096814
  0
ARC
  5
FF
330
1F
100
AcDbEntity
  8
002
100
AcDbCircle
 10
358.5172084655
 20
413.1390559131
 30
0.0
 40
12.49999999999981
100
AcDbArc
 50
271.903186
 51
289.904078
  0
ARC
  5
100
330
1F
100
AcDbEntity
  8
002
100
AcDbCircle
 10
358.4825644066
 20
398.1688191698
 30
0.0
 40
12.49999999999971
100
AcDbArc
 50
70.095922
 51
88.096814
  0
ARC
  5
101
330
1F
100
AcDbEntity
  8
002
100
AcDbCircle
 10
351.3976989077
 20
408.9818541667
 30
0.0
 40
0.9999999967564008
100
AcDbArc
 50
109.904105556
 51
180.0
  0
ARC
  5
102
330
1F
100
AcDbEntity
  8
002
100
AcDbCircle
 10
351.3976989077
 20
402.3419936667
 30
0.0
 40
0.999999996756344
100
AcDbArc
 50
180.0
 51
250.095894444
  0
ARC
  5
103
330
1F
100
AcDbEntity
  8
002
100
AcDbCircle
 10
362.3976988765
 20
402.3419935867
 30
0.0
 40
0.9999999116446361
100
AcDbArc
 50
289.9040786194
 51
0.0
  0
ARC
  5
104
330
1F
100
AcDbEntity
  8
002
100
AcDbCircle
 10
362.3976988765
 20
408.9818540867
 30
0.0
 40
0.9999999116447355
100
AcDbArc
 50
0.0
 51
70.0959213806
  0
ARC
  5
105
330
1F
100
AcDbEntity
  8
006
100
AcDbCircle
 10
249.8342889436
 20
23.9710666016
 30
0.0
 40
3.326393996960778
100
AcDbArc
 50
289.158067
 51
315.0000060898
  0
ARC
  5
106
330
1F
100
AcDbEntity
  8
006
100
AcDbCircle
 10
252.9867249707
 20
24.0323200744
 30
0.0
 40
3.326393958566628
100
AcDbArc
 50
278.1300999182
 51
314.9999980922
  0
ARC
  5
107
330
1F
100
AcDbEntity
  8
006
100
AcDbCircle
 10
264.2748524457
 20
22.5354430994
 30
0.0
 40
1.663197000000082
100
AcDbArc
 50
270.0
 51
0.0
  0
ARC
  5
108
330
1F
100
AcDbEntity
  8
006
100
AcDbCircle
 10
266.6102523229
 20
25.8618372223
 30
0.0
 40
3.326394173736925
100
AcDbArc
 50
101.389514
 51
135.0
  0
ARC
  5
109
330
1F
100
AcDbEntity
  8
006
100
AcDbCircle
 10
260.8293354447
 20
26.0280736023
 30
0.0
 40
3.32639399696082
100
AcDbArc
 50
109.158067
 51
134.9999939102
  0
ARC
  5
10A
330
1F
100
AcDbEntity
  8
006
100
AcDbCircle
 10
263.2837753529
 20
25.8617536623
 30
0.0
 40
3.326394173737629
100
AcDbArc
 50
98.130102
 51
135.0
  0
INSERT
  5
10B
330
1F
100
AcDbEntity
  8
0
  6
Continuous
 62
     7
100
AcDbBlockReference
  2
ﾌﾞﾛｯｸ17
 10
267.0634285969
 20
21.5141682501
 30
0.0
 41
0.5
 42
0.5
 43
0.5
  0
INSERT
  5
10C
330
1F
100
AcDbEntity
  8
0
  6
Continuous
 62
     7
100
AcDbBlockReference
  2
ﾌﾞﾛｯｸ13
 10
20.7776769723
 20
17.1314556667
 30
0.0
 41
0.3333333333
 42
0.3333333333
 43
0.3333333333
  0
HATCH
  5
10D
330
1F
100
AcDbEntity
  8
004
100
AcDbHatch
 10
0.0
 20
0.0
 30
0.0
210
0.0
220
0.0
230
1.0
  2
SOLID
 70
     1
 71
     0
 91
        1
 92
        0
 93
        4
 72
     1
 10
252.1864049457473
 20
21.61895109944249
 11
259.7376947675166
 21
29.1702412704724
 72
     2
 10
260.8293354447495
 20
26.0280736023128
 40
3.326393996960816
 50
109.1580669999933
 51
134.9999939101811
 73
     1
 72
     1
 10
258.4772199426006
 20
28.38018960446223
 11
250.9259296208312
 21
20.82889893343212
 72
     2
 10
249.834288943598
 20
23.9710666015916
 40
3.326393996960771
 50
289.1580669999989
 51
315.0000060898154
 73
     1
 97
        0
 75
     0
 76
     1
 98
        1
 10
0.0
 20
0.0
  0
HATCH
  5
10E
330
1F
100
AcDbEntity
  8
004
100
AcDbHatch
 10
0.0
 20
0.0
 30
0.0
210
0.0
220
0.0
230
1.0
  2
SOLID
 70
     1
 71
     0
 91
        1
 92
        0
 93
        5
 72
     1
 10
265.9380494457473
 20
22.53544309944096
 11
265.9380494457473
 21
29.1196030994413
 72
     2
 10
266.610252322896
 20
25.86183722229369
 40
3.326394173736932
 50
101.6587102265756
 51
134.9999999999993
 73
     1
 72
     1
 10
264.2581364457473
 20
28.21395309944252
 11
256.9164299457473
 21
20.87224609944113
 72
     1
 10
256.9164299457473
 20
20.87224609944113
 11
264.2748524457472
 21
20.87224609944112
 72
     2
 10
264.2748524457472
 20
22.53544309944096
 40
1.66319699999995
 50
270.0000000000008
 51
360.0000000000008
 73
     1
 97
        0
 75
     0
 76
     1
 98
        1
 10
0.0
 20
0.0
  0
HATCH
  5
10F
330
1F
100
AcDbEntity
  8
004
100
AcDbHatch
 10
0.0
 20
0.0
 30
0.0
210
0.0
220
0.0
230
1.0
  2
SOLID
 70
     1
 71
     0
 91
        1
 92
        0
 93
        4
 72
     1
 10
255.338840617427
 20
21.68020427112233
 11
262.8133528271937
 21
29.15471598312042
 72
     2
 10
263.2837753528962
 20
25.86175366229326
 40
3.326394173737626
 50
98.13009104924654
 51
135.0000000000023
 73
     1
 72
     1
 10
260.9316594757468
 20
28.21386953944247
 11
253.4571479757466
 21
20.73935803944227
 72
     2
 10
252.9867249707467
 20
24.0323200744429
 40
3.326393958566634
 50
278.1300999182279
 51
314.9999980921808
 73
     1
 97
        0
 75
     0
 76
     1
 98
        1
 10
0.0
 20
0.0
  0
MTEXT
  5
111
330
1F
100
AcDbEntity
  8
003
100
AcDbMText
 10
278.8862265549
 20
54.1771051328
 30
0.0
 40
6.2868843333
 41
0.0
 71
     1
 72
     1
  1
SAP-501B
  7
SLDTEXTSTYLE3
 73
     1
 44
1.0
  0
MTEXT
  5
112
330
1F
100
AcDbEntity
  8
003
100
AcDbMText
 10
378.0939072309
 20
27.8119949796
 30
0.0
 40
4.6199916667
 41
0.0
 71
     1
 72
     1
  1
2020.12
  7
SLDTEXTSTYLE3
 73
     1
 44
1.0
  0
INSERT
  5
11B
330
1F
100
AcDbEntity
  8
005
100
AcDbBlockReference
  2
SW_NOTE_0_6
 10
156.2555492367
 20
68.9732785089
 30
0.0
  0
MTEXT
  5
11C
330
1F
100
AcDbEntity
  8
008
100
AcDbMText
 10
379.7462599476
 20
54.3143378879
 30
0.0
 40
6.6527876667
 41
0.0
 71
     1
 72
     1
  1
１／１
  7
SLDTEXTSTYLE3
 73
     1
 44
1.0
  0
INSERT
  5
125
330
1F
100
AcDbEntity
  8
005
100
AcDbBlockReference
  2
SW_NOTE_0_7
 10
151.4782696736
 20
174.4653461292
 30
0.0
  0
INSERT
  5
12E
330
1F
100
AcDbEntity
  8
005
100
AcDbBlockReference
  2
SW_NOTE_0_8
 10
306.8828223834
 20
66.3355328115
 30
0.0
  0
MTEXT
  5
12F
330
1F
100
AcDbEntity
  8
003
100
AcDbMText
 10
278.5277817704
 20
43.3443565821
 30
0.0
 40
6.2868843333
 41
0.0
 71
     1
 72
     1
  1
1口IH用固定金具
  7
SLDTEXTSTYLE3
 73
     1
 44
1.0
  0
MTEXT
  5
130
330
1F
100
AcDbEntity
  8
006
100
AcDbMText
 10
299.1127451225
 20
28.8516580006
 30
0.0
 40
5.5439896667
 41
0.0
 71
     1
 72
     1
  1
三化工業株式会社
  7
SLDTEXTSTYLE3
 73
     1
 44
1.0
  0
LINE
  5
131
330
1F
100
AcDbEntity
  8
0
  6
Continuous
 62
     7
370
    25
100
AcDbLine
 10
186.3848786706
 20
94.7260864092
 30
0.0
 11
186.4828148095
 21
93.6066712194
 31
0.0
  0
LINE
  5
132
330
1F
100
AcDbEntity
  8
0
  6
Continuous
 62
     7
370
    25
100
AcDbLine
 10
193.2869425317
 20
93.6066712194
 30
0.0
 11
193.3848786706
 21
94.7260864092
 31
0.0
  0
ARC
  5
133
330
1F
100
AcDbEntity
  8
0
  6
Continuous
 62
     7
370
    25
100
AcDbCircle
 10
187.777867917
 20
93.7199736849
 30
0.0
 40
1.300000000000025
100
AcDbArc
 50
185.0
 51
254.1191499917
  0
ARC
  5
134
330
1F
100
AcDbEntity
  8
0
  6
Continuous
 62
     7
370
    25
100
AcDbCircle
 10
191.9918894242
 20
93.7199736849
 30
0.0
 40
1.300000000000003
100
AcDbArc
 50
285.8808500083
 51
355.0
  0
ARC
  5
135
330
1F
100
AcDbEntity
  8
0
  6
Continuous
 62
     7
370
    25
100
AcDbCircle
 10
189.8848786706
 20
101.1260864092
 30
0.0
 40
9.0
100
AcDbArc
 50
281.1258041186
 51
285.8808500083
  0
ARC
  5
136
330
1F
100
AcDbEntity
  8
0
  6
Continuous
 62
     7
370
    25
100
AcDbCircle
 10
189.8848786706
 20
101.1260864092
 30
0.0
 40
9.000000000000005
100
AcDbArc
 50
254.1191499917
 51
258.8741958814
  0
LINE
  5
137
330
1F
100
AcDbEntity
  8
0
  6
Continuous
 62
     7
370
    25
100
AcDbLine
 10
191.8848786706
 20
94.7260864092
 30
0.0
 11
191.8848786706
 21
136.7260864092
 31
0.0
  0
LINE
  5
138
330
1F
100
AcDbEntity
  8
0
  6
Continuous
 62
     7
370
    25
100
AcDbLine
 10
187.8848786706
 20
136.7260864092
 30
0.0
 11
187.8848786706
 21
94.7260864092
 31
0.0
  0
LINE
  5
139
330
1F
100
AcDbEntity
  8
0
  6
Continuous
 62
     7
370
    25
100
AcDbLine
 10
189.1884266585
 20
92.1691745598
 30
0.0
 11
189.1884266585
 21
92.4118738802
 31
0.0
  0
LINE
  5
13A
330
1F
100
AcDbEntity
  8
0
  6
Continuous
 62
     7
370
    25
100
AcDbLine
 10
190.5813306827
 20
92.1829390898
 30
0.0
 11
190.5813306827
 21
92.1691745598
 31
0.0
  0
LINE
  5
13B
330
1F
100
AcDbEntity
  8
0
  6
Continuous
 62
     7
370
    25
100
AcDbLine
 10
180.8848786706
 20
147.7260864092
 30
0.0
 11
180.8848786706
 21
145.7260864092
 31
0.0
  0
LINE
  5
13C
330
1F
100
AcDbEntity
  8
0
  6
Continuous
 62
     7
370
    25
100
AcDbLine
 10
198.8848786706
 20
145.7260864092
 30
0.0
 11
198.8848786706
 21
147.7260864092
 31
0.0
  0
LINE
  5
13D
330
1F
100
AcDbEntity
  8
0
  6
Continuous
 62
     7
370
    25
100
AcDbLine
 10
185.8848786706
 20
145.7260864092
 30
0.0
 11
185.8848786706
 21
138.7260864092
 31
0.0
  0
LINE
  5
13E
330
1F
100
AcDbEntity
  8
0
  6
Continuous
 62
     7
370
    25
100
AcDbLine
 10
193.8848786706
 20
138.7260864092
 30
0.0
 11
193.8848786706
 21
145.7260864092
 31
0.0
  0
LINE
  5
13F
330
1F
100
AcDbEntity
  8
0
  6
Continuous
 62
     7
370
    25
100
AcDbLine
 10
186.8848786706
 20
137.5260864092
 30
0.0
 11
186.8848786706
 21
136.7260864092
 31
0.0
  0
LINE
  5
140
330
1F
100
AcDbEntity
  8
0
  6
Continuous
 62
     7
370
    25
100
AcDbLine
 10
192.8848786706
 20
136.7260864092
 30
0.0
 11
192.8848786706
 21
137.5260864092
 31
0.0
  0
LINE
  5
141
330
1F
100
AcDbEntity
  8
0
  6
Continuous
 62
     7
370
    25
100
AcDbLine
 10
186.3848786706
 20
94.7260864092
 30
0.0
 11
193.3848786706
 21
94.7260864092
 31
0.0
  0
ARC
  5
142
330
1F
100
AcDbEntity
  8
0
  6
Continuous
 62
     7
370
    25
100
AcDbCircle
 10
190.4910085925
 20
93.2421407265
 30
0.0
 40
1.124838455820976
100
AcDbArc
 50
227.5715956445
 51
251.461893703
  0
LINE
  5
143
330
1F
100
AcDbEntity
  8
0
  6
Continuous
 62
     7
370
    25
100
AcDbLine
 10
189.7321156385
 20
92.4118738802
 30
0.0
 11
188.7744571117
 21
92.4118738802
 31
0.0
  0
ARC
  5
144
330
1F
100
AcDbEntity
  8
0
  6
Continuous
 62
     7
370
    25
100
AcDbCircle
 10
189.5333500657
 20
93.2421407265
 30
0.0
 40
1.124838455820252
100
AcDbArc
 50
227.5715956445
 51
251.4618937031
  0
SPLINE
  5
145
330
1F
100
AcDbEntity
  8
0
  6
Continuous
 62
     7
370
    25
100
AcDbSpline
210
0.0
220
0.0
230
1.0
 70
     8
 71
     3
 72
     9
 73
     5
 74
     0
 42
0.00000001
 43
0.00000001
 40
0.0
 40
0.0
 40
0.0
 40
0.0
 40
0.5656990017083456
 40
1.0
 40
1.0
 40
1.0
 40
1.0
 10
189.1757242165027
 20
92.1756674245705
 30
0.0
 10
189.179928883793
 20
92.17423989203365
 30
0.0
 10
189.1873615772884
 20
92.17171640775575
 30
0.0
 10
189.1875317667581
 20
92.16994422187275
 30
0.0
 10
189.1876056802147
 20
92.16917455977462
 30
0.0
  0
SPLINE
  5
146
330
1F
100
AcDbEntity
  8
0
  6
Continuous
 62
     7
370
    25
100
AcDbSpline
210
0.0
220
0.0
230
1.0
 70
     8
 71
     3
 72
    14
 73
    10
 74
     0
 42
0.00000001
 43
0.00000001
 40
0.0
 40
0.0
 40
0.0
 40
0.0
 40
0.1342446405195756
 40
0.2724155613303286
 40
0.4060821952890025
 40
0.5436406999528034
 40
0.6770685479057801
 40
0.8143431202468492
 40
1.0
 40
1.0
 40
1.0
 40
1.0
 10
189.1881467941848
 20
92.16834135672931
 30
0.0
 10
189.1866349771026
 20
92.16752081508776
 30
0.0
 10
189.1835671265166
 20
92.16585573325644
 30
0.0
 10
189.1684634453992
 20
92.16465258407098
 30
0.0
 10
189.1459200175944
 20
92.16444133572298
 30
0.0
 10
189.1162981464047
 20
92.16530686211068
 30
0.0
 10
189.0800272270954
 20
92.1672349637058
 30
0.0
 10
189.0337257845725
 20
92.17042377280352
 30
0.0
 10
188.9963095905904
 20
92.17375326342167
 30
0.0
 10
188.9747986049559
 20
92.1756674245705
 30
0.0
  0
ARC
  5
147
330
1F
100
AcDbEntity
  8
0
  6
Continuous
 62
     7
370
    25
100
AcDbCircle
 10
189.7429457589
 20
100.4031074279
 30
0.0
 40
8.263220864647032
100
AcDbArc
 50
258.872507971
 51
264.6660961512
  0
LINE
  5
148
330
1F
100
AcDbEntity
  8
0
  6
Continuous
 62
     7
370
    25
100
AcDbLine
 10
189.1884266585
 20
92.1829390898
 30
0.0
 11
189.2627050933
 21
92.1756674246
 31
0.0
  0
SPLINE
  5
149
330
1F
100
AcDbEntity
  8
0
  6
Continuous
 62
     7
370
    25
100
AcDbSpline
210
0.0
220
0.0
230
1.0
 70
     8
 71
     3
 72
    24
 73
    20
 74
     0
 42
0.00000001
 43
0.00000001
 40
0.0
 40
0.0
 40
0.0
 40
0.0
 40
0.0524898480332013
 40
0.1053398612486961
 40
0.1593290330999334
 40
0.2137133986794787
 40
0.2663046380259227
 40
0.3192632835698547
 40
0.3733835280603937
 40
0.4279062606356094
 40
0.4802713414230768
 40
0.5330014543229192
 40
0.5868829233715338
 40
0.6411621012636421
 40
0.7463582785967521
 40
0.7997497131195485
 40
0.8539137002288931
 40
0.9264743377029836
 40
1.0
 40
1.0
 40
1.0
 40
1.0
 10
189.262705093281
 20
92.1756674245705
 30
0.0
 10
189.2706377401076
 20
92.17494981679023
 30
0.0
 10
189.2865574645374
 20
92.17350967728059
 30
0.0
 10
189.3112446824908
 20
92.17157838761418
 30
0.0
 10
189.3364658941293
 20
92.16982800118515
 30
0.0
 10
189.361764709859
 20
92.1683169327728
 30
0.0
 10
189.386819540227
 20
92.16705419669532
 30
0.0
 10
189.4115840292357
 20
92.1660387282722
 30
0.0
 10
189.4362133220584
 20
92.16526991598309
 30
0.0
 10
189.4601316634601
 20
92.16477161527601
 30
0.0
 10
189.4830632434313
 20
92.16454243608068
 30
0.0
 10
189.5049814497478
 20
92.16457506070115
 30
0.0
 10
189.52606280665
 20
92.16487588575325
 30
0.0
 10
189.552325143626
 20
92.16563114516634
 30
0.0
 10
189.5757985309599
 20
92.16690561394805
 30
0.0
 10
189.5959935272661
 20
92.16866271294424
 30
0.0
 10
189.6110753177067
 20
92.17042329034446
 30
0.0
 10
189.6253695083695
 20
92.17269315978034
 30
0.0
 10
189.6326901150512
 20
92.17467164644219
 30
0.0
 10
189.6363745978229
 20
92.1756674245705
 30
0.0
  0
ARC
  5
14A
330
1F
100
AcDbEntity
  8
0
  6
Continuous
 62
     7
370
    25
100
AcDbCircle
 10
189.3316960592
 20
93.1269311436
 30
0.0
 40
0.998865193669946
100
AcDbArc
 50
287.7596488737
 51
303.6288638905
  0
SPLINE
  5
14B
330
1F
100
AcDbEntity
  8
0
  6
Continuous
 62
     7
370
    25
100
AcDbSpline
210
0.0
220
0.0
230
1.0
 70
     8
 71
     3
 72
    15
 73
    11
 74
     0
 42
0.00000001
 43
0.00000001
 40
0.0
 40
0.0
 40
0.0
 40
0.0
 40
0.0337891761348246
 40
0.1634978008507282
 40
0.2970000400814963
 40
0.4261501886019836
 40
0.5590607047228638
 40
0.6879801356200669
 40
0.820616313257477
 40
1.0
 40
1.0
 40
1.0
 40
1.0
 10
190.5821516609252
 20
92.16917455977462
 30
0.0
 10
190.5819049971977
 20
92.16888943851256
 30
0.0
 10
190.5807114499852
 20
92.16750980442099
 30
0.0
 10
190.5870019207981
 20
92.1659461810759
 30
0.0
 10
190.6010819167683
 20
92.16462896341065
 30
0.0
 10
190.6238951951754
 20
92.16444778431595
 30
0.0
 10
190.6534440546516
 20
92.16530517506233
 30
0.0
 10
190.6897341882157
 20
92.16723541768769
 30
0.0
 10
190.7360300936766
 20
92.17042360979465
 30
0.0
 10
190.7734472165306
 20
92.17375320391635
 30
0.0
 10
190.794958736184
 20
92.1756674245705
 30
0.0
  0
ARC
  5
14C
330
1F
100
AcDbEntity
  8
0
  6
Continuous
 62
     7
370
    25
100
AcDbCircle
 10
190.0253728956
 20
100.4135202907
 30
0.0
 40
8.273722391424979
100
AcDbArc
 50
275.3371203841
 51
284.7343039534
  0
LINE
  5
14D
330
1F
100
AcDbEntity
  8
0
  6
Continuous
 62
     7
370
    25
100
AcDbLine
 10
192.1296867818
 20
92.4118738802
 30
0.0
 11
191.8417802934
 21
92.4118738802
 31
0.0
  0
ARC
  5
14E
330
1F
100
AcDbEntity
  8
0
  6
Continuous
 62
     7
370
    25
100
AcDbCircle
 10
189.7374664072
 20
100.4135202907
 30
0.0
 40
8.273722391426487
100
AcDbArc
 50
275.3371203841
 51
284.7343039534
  0
SPLINE
  5
14F
330
1F
100
AcDbEntity
  8
0
  6
Continuous
 62
     7
370
    25
100
AcDbSpline
210
0.0
220
0.0
230
1.0
 70
     8
 71
     3
 72
    24
 73
    20
 74
     0
 42
0.00000001
 43
0.00000001
 40
0.0
 40
0.0
 40
0.0
 40
0.0
 40
0.0524899901756826
 40
0.1053401465090935
 40
0.1593294645629676
 40
0.2137139774154231
 40
0.2663053591789187
 40
0.3192641481348814
 40
0.3733845391830053
 40
0.4279074194058239
 40
0.4802726419979382
 40
0.5330028976909242
 40
0.5868845126505445
 40
0.6411638375306957
 40
0.6934365037921036
 40
0.7997491708417446
 40
0.8539133046271762
 40
0.9264741385954844
 40
1.0
 40
1.0
 40
1.0
 40
1.0
 10
190.507052247859
 20
92.1756674245705
 30
0.0
 10
190.499119601033
 20
92.17494981679017
 30
0.0
 10
190.4831998766047
 20
92.17350967728039
 30
0.0
 10
190.4585126586407
 20
92.17157838761496
 30
0.0
 10
190.4332914470433
 20
92.16982800118217
 30
0.0
 10
190.4079926311598
 20
92.16831693278388
 30
0.0
 10
190.3829378013497
 20
92.16705419665541
 30
0.0
 10
190.3581733102445
 20
92.1660387284238
 30
0.0
 10
190.3335440254464
 20
92.16526991540172
 30
0.0
 10
190.3096256541472
 20
92.16477161742543
 30
0.0
 10
190.2866941818956
 20
92.16454242839121
 30
0.0
 10
190.2647755714142
 20
92.16457508992725
 30
0.0
 10
190.2436957613832
 20
92.16487577369148
 30
0.0
 10
190.2239420898628
 20
92.16544421608594
 30
0.0
 10
190.1995913467375
 20
92.16654324514687
 30
0.0
 10
190.1781901948933
 20
92.16814603745196
 30
0.0
 10
190.1586833175861
 20
92.1704231288265
 30
0.0
 10
190.1443874654557
 20
92.17269320562339
 30
0.0
 10
190.1370671031125
 20
92.17467166179036
 30
0.0
 10
190.1333827433171
 20
92.1756674245705
 30
0.0
  0
LINE
  5
150
330
1F
100
AcDbEntity
  8
0
  6
Continuous
 62
     7
370
    25
100
AcDbLine
 10
180.8848786706
 20
145.7260864092
 30
0.0
 11
198.8848786706
 21
145.7260864092
 31
0.0
  0
LINE
  5
151
330
1F
100
AcDbEntity
  8
0
  6
Continuous
 62
     7
370
    25
100
AcDbLine
 10
180.8848786706
 20
147.7260864092
 30
0.0
 11
198.8848786706
 21
147.7260864092
 31
0.0
  0
LINE
  5
152
330
1F
100
AcDbEntity
  8
0
  6
Continuous
 62
     7
370
    25
100
AcDbLine
 10
195.3848786706
 20
137.5260864092
 30
0.0
 11
195.3848786706
 21
138.7260864092
 31
0.0
  0
LINE
  5
153
330
1F
100
AcDbEntity
  8
0
  6
Continuous
 62
     7
370
    25
100
AcDbLine
 10
197.3848786706
 20
138.7260864092
 30
0.0
 11
197.3848786706
 21
137.5260864092
 31
0.0
  0
LINE
  5
154
330
1F
100
AcDbEntity
  8
0
  6
Continuous
 62
     7
370
    25
100
AcDbLine
 10
195.3848786706
 20
138.7260864092
 30
0.0
 11
197.3848786706
 21
138.7260864092
 31
0.0
  0
LINE
  5
155
330
1F
100
AcDbEntity
  8
0
  6
Continuous
 62
     7
370
    25
100
AcDbLine
 10
197.3848786706
 20
137.5260864092
 30
0.0
 11
195.3848786706
 21
137.5260864092
 31
0.0
  0
ARC
  5
156
330
1F
100
AcDbEntity
  8
0
  6
Continuous
 62
     7
370
    25
100
AcDbCircle
 10
149.3848786706
 20
137.0260864092
 30
0.0
 40
0.5
100
AcDbArc
 50
90.0
 51
180.0
  0
LINE
  5
157
330
1F
100
AcDbEntity
  8
0
  6
Continuous
 62
     7
370
    25
100
AcDbLine
 10
148.8848786706
 20
109.4260864092
 30
0.0
 11
148.8848786706
 21
137.0260864092
 31
0.0
  0
ARC
  5
158
330
1F
100
AcDbEntity
  8
0
  6
Continuous
 62
     7
370
    25
100
AcDbCircle
 10
147.1848786706
 20
109.4260864092
 30
0.0
 40
1.700000000000003
100
AcDbArc
 50
270.0
 51
0.0
  0
LINE
  5
159
330
1F
100
AcDbEntity
  8
0
  6
Continuous
 62
     7
370
    25
100
AcDbLine
 10
122.8848786706
 20
107.7260864092
 30
0.0
 11
147.1848786706
 21
107.7260864092
 31
0.0
  0
LINE
  5
15A
330
1F
100
AcDbEntity
  8
0
  6
Continuous
 62
     7
370
    25
100
AcDbLine
 10
122.8848786706
 20
108.9260864092
 30
0.0
 11
122.8848786706
 21
107.7260864092
 31
0.0
  0
LINE
  5
15B
330
1F
100
AcDbEntity
  8
0
  6
Continuous
 62
     7
370
    25
100
AcDbLine
 10
122.8848786706
 20
108.9260864092
 30
0.0
 11
147.1848786706
 21
108.9260864092
 31
0.0
  0
ARC
  5
15C
330
1F
100
AcDbEntity
  8
0
  6
Continuous
 62
     7
370
    25
100
AcDbCircle
 10
147.1848786706
 20
109.4260864092
 30
0.0
 40
0.5
100
AcDbArc
 50
270.0
 51
0.0
  0
LINE
  5
15D
330
1F
100
AcDbEntity
  8
0
  6
Continuous
 62
     7
370
    25
100
AcDbLine
 10
147.6848786706
 20
109.4260864092
 30
0.0
 11
147.6848786706
 21
137.0260864092
 31
0.0
  0
ARC
  5
15E
330
1F
100
AcDbEntity
  8
0
  6
Continuous
 62
     7
370
    25
100
AcDbCircle
 10
149.3848786706
 20
137.0260864092
 30
0.0
 40
1.700000000000017
100
AcDbArc
 50
90.0
 51
180.0
  0
LINE
  5
15F
330
1F
100
AcDbEntity
  8
0
  6
Continuous
 62
     7
370
    25
100
AcDbLine
 10
149.3848786706
 20
138.7260864092
 30
0.0
 11
195.3848786706
 21
138.7260864092
 31
0.0
  0
LINE
  5
160
330
1F
100
AcDbEntity
  8
0
  6
Continuous
 62
     7
370
    25
100
AcDbLine
 10
149.3848786706
 20
137.5260864092
 30
0.0
 11
195.3848786706
 21
137.5260864092
 31
0.0
  0
LINE
  5
161
330
1F
100
AcDbEntity
  8
0
  6
Continuous
 62
     7
370
    25
100
AcDbLine
 10
120.8848786706
 20
107.7260864092
 30
0.0
 11
120.8848786706
 21
108.9260864092
 31
0.0
  0
LINE
  5
162
330
1F
100
AcDbEntity
  8
0
  6
Continuous
 62
     7
370
    25
100
AcDbLine
 10
120.8848786706
 20
108.9260864092
 30
0.0
 11
122.8848786706
 21
108.9260864092
 31
0.0
  0
LINE
  5
163
330
1F
100
AcDbEntity
  8
0
  6
Continuous
 62
     7
370
    25
100
AcDbLine
 10
122.8848786706
 20
107.7260864092
 30
0.0
 11
120.8848786706
 21
107.7260864092
 31
0.0
  0
LINE
  5
164
330
1F
100
AcDbEntity
  8
0
  6
Continuous
 62
     7
370
    25
100
AcDbLine
 10
186.8848786706
 20
136.7260864092
 30
0.0
 11
192.8848786706
 21
136.7260864092
 31
0.0
  0
LINE
  5
165
330
1F
100
AcDbEntity
  8
0
  6
Continuous
 62
     8
370
    25
100
AcDbLine
 10
186.4828148095
 20
93.6066712194
 30
0.0
 11
193.2869425317
 21
93.6066712194
 31
0.0
  0
LINE
  5
166
330
1F
100
AcDbEntity
  8
0
  6
Continuous
 62
     8
370
    25
100
AcDbLine
 10
187.4221388287
 20
92.4695910172
 30
0.0
 11
192.3476185124
 21
92.4695910172
 31
0.0
  0
LINE
  5
167
330
1F
100
AcDbEntity
  8
0
  6
Continuous
 62
     8
370
    25
100
AcDbLine
 10
189.1757242165
 20
92.4118738802
 30
0.0
 11
189.1757242165
 21
92.1756674246
 31
0.0
  0
LINE
  5
168
330
1F
100
AcDbEntity
  8
0
  6
Continuous
 62
     8
370
    25
100
AcDbLine
 10
190.7949587362
 20
92.207644801
 30
0.0
 11
190.7949587362
 21
92.1756674246
 31
0.0
  0
LINE
  5
169
330
1F
100
AcDbEntity
  8
0
  6
Continuous
 62
     8
370
    25
100
AcDbLine
 10
189.2627050933
 20
92.4118738802
 30
0.0
 11
189.2627050933
 21
92.1756674246
 31
0.0
  0
LINE
  5
16A
330
1F
100
AcDbEntity
  8
0
  6
Continuous
 62
     8
370
    25
100
AcDbLine
 10
189.6363745978
 20
92.4118738802
 30
0.0
 11
189.6363745978
 21
92.1756674246
 31
0.0
  0
DIMENSION
  5
16B
330
1F
100
AcDbEntity
  8
004
100
AcDbDimension
  2
_D
 10
209.9848364931
 20
147.7260864092
 30
0.0
 11
209.9848364931
 21
125.6132995765
 31
0.0
 70
   160
  1
<>
 71
     2
 42
-1.0
  3
SLDDIMSTYLE0
100
AcDbAlignedDimension
 13
189.6363745978
 23
92.1756674246
 33
0.0
 14
198.8848786706
 24
147.7260864092
 34
0.0
 50
90.0
100
AcDbRotatedDimension
  0
DIMENSION
  5
17D
330
1F
100
AcDbEntity
  8
004
100
AcDbDimension
  2
_D_1
 10
111.9198958646
 20
107.7260864092
 30
0.0
 11
111.9198958646
 21
125.6132995765
 31
0.0
 70
   160
  1
<>
 71
     2
 42
-1.0
  3
SLDDIMSTYLE0
100
AcDbAlignedDimension
 13
149.3848786706
 23
138.7260864092
 33
0.0
 14
120.8848786706
 24
107.7260864092
 34
0.0
 50
90.0
100
AcDbRotatedDimension
  0
CIRCLE
  5
187
330
1F
100
AcDbEntity
  8
0
  6
Continuous
 62
     7
370
    25
100
AcDbCircle
 10
183.4407302851
 20
227.5820662359
 30
0.0
 40
1.100000000000013
  0
CIRCLE
  5
188
330
1F
100
AcDbEntity
  8
0
  6
Continuous
 62
     7
370
    25
100
AcDbCircle
 10
189.8848786706
 20
228.4323318333
 30
0.0
 40
8.999999999999968
  0
LINE
  5
189
330
1F
100
AcDbEntity
  8
0
  6
Continuous
 62
     7
370
    25
100
AcDbLine
 10
149.3848786706
 20
249.4323318333
 30
0.0
 11
149.3848786706
 21
207.4323318333
 31
0.0
  0
LINE
  5
18A
330
1F
100
AcDbEntity
  8
0
  6
Continuous
 62
     7
370
    25
100
AcDbLine
 10
149.3848786706
 20
249.4323318333
 30
0.0
 11
195.3848786706
 21
249.4323318333
 31
0.0
  0
ARC
  5
18B
330
1F
100
AcDbEntity
  8
0
  6
Continuous
 62
     7
370
    25
100
AcDbCircle
 10
195.3848786706
 20
247.4323318333
 30
0.0
 40
2.0
100
AcDbArc
 50
0.0
 51
90.0
  0
LINE
  5
18C
330
1F
100
AcDbEntity
  8
0
  6
Continuous
 62
     7
370
    25
100
AcDbLine
 10
197.3848786706
 20
247.4323318333
 30
0.0
 11
197.3848786706
 21
233.4072690189
 31
0.0
  0
LINE
  5
18D
330
1F
100
AcDbEntity
  8
0
  6
Continuous
 62
     7
370
    25
100
AcDbLine
 10
197.3848786706
 20
223.4573946478
 30
0.0
 11
197.3848786706
 21
209.4323318333
 31
0.0
  0
ARC
  5
18E
330
1F
100
AcDbEntity
  8
0
  6
Continuous
 62
     7
370
    25
100
AcDbCircle
 10
195.3848786706
 20
209.4323318333
 30
0.0
 40
2.0
100
AcDbArc
 50
270.0
 51
0.0
  0
LINE
  5
18F
330
1F
100
AcDbEntity
  8
0
  6
Continuous
 62
     7
370
    25
100
AcDbLine
 10
149.3848786706
 20
207.4323318333
 30
0.0
 11
195.3848786706
 21
207.4323318333
 31
0.0
  0
CIRCLE
  5
190
330
1F
100
AcDbEntity
  8
0
  6
Continuous
 62
     7
370
    25
100
AcDbCircle
 10
158.1848786705
 20
228.4323318333
 30
0.0
 40
6.0
  0
LINE
  5
191
330
1F
100
AcDbEntity
  8
0
  6
Continuous
 62
     7
370
    25
100
AcDbLine
 10
147.6848786706
 20
249.4323318333
 30
0.0
 11
147.6848786706
 21
207.4323318333
 31
0.0
  0
LINE
  5
192
330
1F
100
AcDbEntity
  8
0
  6
Continuous
 62
     7
370
    25
100
AcDbLine
 10
147.6848786706
 20
207.4323318333
 30
0.0
 11
149.3848786706
 21
207.4323318333
 31
0.0
  0
LINE
  5
193
330
1F
100
AcDbEntity
  8
0
  6
Continuous
 62
     7
370
    25
100
AcDbLine
 10
147.6848786706
 20
249.4323318333
 30
0.0
 11
149.3848786706
 21
249.4323318333
 31
0.0
  0
LINE
  5
194
330
1F
100
AcDbEntity
  8
0
  6
Continuous
 62
     7
370
    25
100
AcDbLine
 10
147.1848786706
 20
249.4323318333
 30
0.0
 11
147.1848786706
 21
207.4323318333
 31
0.0
  0
LINE
  5
195
330
1F
100
AcDbEntity
  8
0
  6
Continuous
 62
     7
370
    25
100
AcDbLine
 10
147.1848786706
 20
207.4323318333
 30
0.0
 11
147.6848786706
 21
207.4323318333
 31
0.0
  0
LINE
  5
196
330
1F
100
AcDbEntity
  8
0
  6
Continuous
 62
     7
370
    25
100
AcDbLine
 10
147.1848786706
 20
249.4323318333
 30
0.0
 11
147.6848786706
 21
249.4323318333
 31
0.0
  0
ARC
  5
197
330
1F
100
AcDbEntity
  8
0
  6
Continuous
 62
     7
370
    25
100
AcDbCircle
 10
122.8848786706
 20
247.4323318333
 30
0.0
 40
2.0
100
AcDbArc
 50
90.0
 51
180.0
  0
ARC
  5
198
330
1F
100
AcDbEntity
  8
0
  6
Continuous
 62
     7
370
    25
100
AcDbCircle
 10
122.8848786706
 20
209.4323318333
 30
0.0
 40
2.0
100
AcDbArc
 50
180.0
 51
270.0
  0
LINE
  5
199
330
1F
100
AcDbEntity
  8
0
  6
Continuous
 62
     7
370
    25
100
AcDbLine
 10
120.8848786706
 20
247.4323318333
 30
0.0
 11
120.8848786706
 21
209.4323318333
 31
0.0
  0
CIRCLE
  5
19A
330
1F
100
AcDbEntity
  8
0
  6
Continuous
 62
     7
370
    25
100
AcDbCircle
 10
142.1848786706
 20
243.4323318333
 30
0.0
 40
2.099999999999966
  0
CIRCLE
  5
19B
330
1F
100
AcDbEntity
  8
0
  6
Continuous
 62
     7
370
    25
100
AcDbCircle
 10
142.1848786706
 20
213.4323318333
 30
0.0
 40
2.099999999999966
  0
CIRCLE
  5
19C
330
1F
100
AcDbEntity
  8
0
  6
Continuous
 62
     7
370
    25
100
AcDbCircle
 10
126.1848786706
 20
243.4323318333
 30
0.0
 40
2.099999999999994
  0
CIRCLE
  5
19D
330
1F
100
AcDbEntity
  8
0
  6
Continuous
 62
     7
370
    25
100
AcDbCircle
 10
126.1848786706
 20
213.4323318333
 30
0.0
 40
2.099999999999994
  0
CIRCLE
  5
19E
330
1F
100
AcDbEntity
  8
0
  6
Continuous
 62
     7
370
    25
100
AcDbCircle
 10
142.1848786706
 20
228.4323318333
 30
0.0
 40
1.75
  0
CIRCLE
  5
19F
330
1F
100
AcDbEntity
  8
0
  6
Continuous
 62
     7
370
    25
100
AcDbCircle
 10
128.1848786706
 20
228.4323318333
 30
0.0
 40
1.749999999999275
  0
LINE
  5
1A0
330
1F
100
AcDbEntity
  8
0
  6
Continuous
 62
     7
370
    25
100
AcDbLine
 10
122.8848786706
 20
207.4323318333
 30
0.0
 11
147.1848786706
 21
207.4323318333
 31
0.0
  0
LINE
  5
1A1
330
1F
100
AcDbEntity
  8
0
  6
Continuous
 62
     7
370
    25
100
AcDbLine
 10
122.8848786706
 20
249.4323318333
 30
0.0
 11
147.1848786706
 21
249.4323318333
 31
0.0
  0
LINE
  5
1A2
330
1F
100
AcDbEntity
  8
004
370
    18
100
AcDbLine
 10
198.8848786706
 20
228.4323318333
 30
0.0
 11
198.8848786706
 21
211.4757787435
 31
0.0
  0
DIMENSION
  5
1A3
330
1F
100
AcDbEntity
  8
004
100
AcDbDimension
  2
_D_2
 10
198.8848786706
 20
185.4323318333
 30
0.0
 11
159.886938229
 21
185.4323318333
 31
0.0
 70
   160
  1
<>
 71
     2
 42
-1.0
  3
SLDDIMSTYLE0
100
AcDbAlignedDimension
 13
120.8848786706
 23
209.4323318333
 33
0.0
 14
198.8848786706
 24
211.4757787435
 34
0.0
 50
0.0
100
AcDbRotatedDimension
  0
DIMENSION
  5
1AD
330
1F
100
AcDbEntity
  8
004
100
AcDbDimension
  2
_D_3
 10
197.3848786706
 20
191.4323318333
 30
0.0
 11
159.886938229
 21
191.4323318333
 31
0.0
 70
   160
  1
<>
 71
     2
 42
-1.0
  3
SLDDIMSTYLE0
100
AcDbAlignedDimension
 13
120.8848786706
 23
209.4323318333
 33
0.0
 14
197.3848786706
 24
209.4323318333
 34
0.0
 50
0.0
100
AcDbRotatedDimension
  0
DIMENSION
  5
1B7
330
1F
100
AcDbEntity
  8
004
100
AcDbDimension
  2
_D_4
 10
110.8848786706
 20
207.4323318333
 30
0.0
 11
110.8848786706
 21
227.5382641857
 31
0.0
 70
   160
  1
<>
 71
     2
 42
-1.0
  3
SLDDIMSTYLE0
100
AcDbAlignedDimension
 13
147.6848786706
 23
249.4323318333
 33
0.0
 14
147.6848786706
 24
207.4323318333
 34
0.0
 50
90.0
100
AcDbRotatedDimension
  0
DIMENSION
  5
1C1
330
1F
100
AcDbEntity
  8
004
100
AcDbDimension
  2
_D_5
 10
155.1848786705
 20
223.2361794106
 30
0.0
 11
177.0659699717
 21
261.1353339489
 31
0.0
 70
   163
  1
<>穴
 71
     1
 42
-1.0
  3
SLDDIMSTYLE1
100
AcDbDiametricDimension
 15
161.1848786705
 25
233.628484256
 35
0.0
 40
0.0
  0
INSERT
  5
1DA
330
1F
100
AcDbEntity
  8
004
100
AcDbBlockReference
  2
SW_CENTERMARKSYMBOL_0
 10
158.1848786705
 20
228.4323318333
 30
0.0
  0
INSERT
  5
1E6
330
1F
100
AcDbEntity
  8
004
100
AcDbBlockReference
  2
SW_CENTERMARKSYMBOL_1
 10
142.1848786706
 20
213.4323318333
 30
0.0
  0
INSERT
  5
1F2
330
1F
100
AcDbEntity
  8
004
100
AcDbBlockReference
  2
SW_CENTERMARKSYMBOL_2
 10
126.1848786706
 20
213.4323318333
 30
0.0
  0
INSERT
  5
1FE
330
1F
100
AcDbEntity
  8
004
100
AcDbBlockReference
  2
SW_CENTERMARKSYMBOL_3
 10
128.1848786706
 20
228.4323318333
 30
0.0
  0
INSERT
  5
20A
330
1F
100
AcDbEntity
  8
004
100
AcDbBlockReference
  2
SW_CENTERMARKSYMBOL_4
 10
126.1848786706
 20
243.4323318333
 30
0.0
  0
INSERT
  5
216
330
1F
100
AcDbEntity
  8
004
100
AcDbBlockReference
  2
SW_CENTERMARKSYMBOL_5
 10
142.1848786706
 20
243.4323318333
 30
0.0
  0
INSERT
  5
222
330
1F
100
AcDbEntity
  8
004
100
AcDbBlockReference
  2
SW_CENTERMARKSYMBOL_6
 10
142.1848786706
 20
228.4323318333
 30
0.0
  0
INSERT
  5
22E
330
1F
100
AcDbEntity
  8
004
100
AcDbBlockReference
  2
SW_CENTERMARKSYMBOL_7
 10
189.8848786706
 20
228.4323318333
 30
0.0
  0
LINE
  5
22F
330
1F
100
AcDbEntity
  8
0
  6
Continuous
 62
     7
370
    25
100
AcDbLine
 10
309.6506488035
 20
94.7260864092
 30
0.0
 11
309.7485849424
 21
93.6066712194
 31
0.0
  0
LINE
  5
230
330
1F
100
AcDbEntity
  8
0
  6
Continuous
 62
     7
370
    25
100
AcDbLine
 10
316.5527126646
 20
93.6066712194
 30
0.0
 11
316.6506488035
 21
94.7260864092
 31
0.0
  0
ARC
  5
231
330
1F
100
AcDbEntity
  8
0
  6
Continuous
 62
     7
370
    25
100
AcDbCircle
 10
311.0436380499
 20
93.7199736849
 30
0.0
 40
1.299999999999997
100
AcDbArc
 50
185.0
 51
254.1191499917
  0
ARC
  5
232
330
1F
100
AcDbEntity
  8
0
  6
Continuous
 62
     7
370
    25
100
AcDbCircle
 10
315.2576595571
 20
93.7199736849
 30
0.0
 40
1.299999999999998
100
AcDbArc
 50
285.8808500083
 51
355.0
  0
ARC
  5
233
330
1F
100
AcDbEntity
  8
0
  6
Continuous
 62
     7
370
    25
100
AcDbCircle
 10
313.1506488035
 20
101.1260864092
 30
0.0
 40
8.999999999999995
100
AcDbArc
 50
281.1258041186
 51
285.8808500083
  0
ARC
  5
234
330
1F
100
AcDbEntity
  8
0
  6
Continuous
 62
     7
370
    25
100
AcDbCircle
 10
313.1506488035
 20
101.1260864092
 30
0.0
 40
9.000000000000005
100
AcDbArc
 50
254.1191499917
 51
258.8741958814
  0
LINE
  5
235
330
1F
100
AcDbEntity
  8
0
  6
Continuous
 62
     7
370
    25
100
AcDbLine
 10
315.1506488035
 20
94.7260864092
 30
0.0
 11
315.1506488035
 21
136.7260864092
 31
0.0
  0
LINE
  5
236
330
1F
100
AcDbEntity
  8
0
  6
Continuous
 62
     7
370
    25
100
AcDbLine
 10
311.1506488035
 20
136.7260864092
 30
0.0
 11
311.1506488035
 21
94.7260864092
 31
0.0
  0
LINE
  5
237
330
1F
100
AcDbEntity
  8
0
  6
Continuous
 62
     7
370
    25
100
AcDbLine
 10
312.4541967914
 20
92.1692796422
 30
0.0
 11
312.4541967914
 21
92.4118738802
 31
0.0
  0
LINE
  5
238
330
1F
100
AcDbEntity
  8
0
  6
Continuous
 62
     7
370
    25
100
AcDbLine
 10
313.8471008156
 20
92.1829390898
 30
0.0
 11
313.8471008156
 21
92.1692796422
 31
0.0
  0
LINE
  5
239
330
1F
100
AcDbEntity
  8
0
  6
Continuous
 62
     7
370
    25
100
AcDbLine
 10
304.1506488035
 20
147.7260864092
 30
0.0
 11
304.1506488035
 21
145.7260864092
 31
0.0
  0
LINE
  5
23A
330
1F
100
AcDbEntity
  8
0
  6
Continuous
 62
     7
370
    25
100
AcDbLine
 10
322.1506488035
 20
145.7260864092
 30
0.0
 11
322.1506488035
 21
147.7260864092
 31
0.0
  0
LINE
  5
23B
330
1F
100
AcDbEntity
  8
0
  6
Continuous
 62
     7
370
    25
100
AcDbLine
 10
309.1506488035
 20
145.7260864092
 30
0.0
 11
309.1506488035
 21
138.7260864092
 31
0.0
  0
LINE
  5
23C
330
1F
100
AcDbEntity
  8
0
  6
Continuous
 62
     7
370
    25
100
AcDbLine
 10
317.1506488035
 20
138.7260864092
 30
0.0
 11
317.1506488035
 21
145.7260864092
 31
0.0
  0
LINE
  5
23D
330
1F
100
AcDbEntity
  8
0
  6
Continuous
 62
     7
370
    25
100
AcDbLine
 10
310.1506488035
 20
137.5260864092
 30
0.0
 11
310.1506488035
 21
136.7260864092
 31
0.0
  0
LINE
  5
23E
330
1F
100
AcDbEntity
  8
0
  6
Continuous
 62
     7
370
    25
100
AcDbLine
 10
316.1506488035
 20
136.7260864092
 30
0.0
 11
316.1506488035
 21
137.5260864092
 31
0.0
  0
LINE
  5
23F
330
1F
100
AcDbEntity
  8
0
  6
Continuous
 62
     7
370
    25
100
AcDbLine
 10
316.5024536473
 20
94.7260864092
 30
0.0
 11
316.6506488035
 21
94.7260864092
 31
0.0
  0
LINE
  5
240
330
1F
100
AcDbEntity
  8
0
  6
Continuous
 62
     7
370
    25
100
AcDbLine
 10
309.6506488035
 20
94.7260864092
 30
0.0
 11
316.5024536473
 21
94.7260864092
 31
0.0
  0
ARC
  5
241
330
1F
100
AcDbEntity
  8
0
  6
Continuous
 62
     7
370
    25
100
AcDbCircle
 10
313.0087158918
 20
100.4031074279
 30
0.0
 40
8.263220864637507
100
AcDbArc
 50
258.872507971
 51
264.6660961512
  0
LINE
  5
242
330
1F
100
AcDbEntity
  8
0
  6
Continuous
 62
     7
370
    25
100
AcDbLine
 10
312.4593805975
 20
92.1824095832
 30
0.0
 11
312.5284752262
 21
92.1756674246
 31
0.0
  0
SPLINE
  5
243
330
1F
100
AcDbEntity
  8
0
  6
Continuous
 62
     7
370
    25
100
AcDbSpline
210
0.0
220
0.0
230
1.0
 70
     8
 71
     3
 72
    12
 73
     8
 74
     0
 42
0.00000001
 43
0.00000001
 40
0.0
 40
0.0
 40
0.0
 40
0.0
 40
0.2136132332158005
 40
0.4276898210389445
 40
0.6408349231253159
 40
0.8535771958240944
 40
1.0
 40
1.0
 40
1.0
 40
1.0
 10
312.5284752262061
 20
92.1756674245705
 30
0.0
 10
312.5614959198016
 20
92.17296608422163
 30
0.0
 10
312.6276089331287
 20
92.16755754396883
 30
0.0
 10
312.7282630859564
 20
92.16412633017173
 30
0.0
 10
312.8149217180316
 20
92.16481462781246
 30
0.0
 10
312.8742571966169
 20
92.16908407539968
 30
0.0
 10
312.8940682496809
 20
92.1737608273545
 30
0.0
 10
312.902144730748
 20
92.1756674245705
 30
0.0
  0
ARC
  5
244
330
1F
100
AcDbEntity
  8
0
  6
Continuous
 62
     7
370
    25
100
AcDbCircle
 10
312.5974661921
 20
93.1269311436
 30
0.0
 40
0.9988651936711455
100
AcDbArc
 50
287.7596488737
 51
303.6288638907
  0
SPLINE
  5
245
330
1F
100
AcDbEntity
  8
0
  6
Continuous
 62
     7
370
    25
100
AcDbSpline
210
0.0
220
0.0
230
1.0
 70
     8
 71
     3
 72
    12
 73
     8
 74
     0
 42
0.00000001
 43
0.00000001
 40
0.0
 40
0.0
 40
0.0
 40
0.0
 40
0.0336204680885029
 40
0.2966961472224907
 40
0.5586271367606043
 40
0.8200630949840226
 40
1.0
 40
1.0
 40
1.0
 40
1.0
 10
313.8489717004595
 20
92.1692796422445
 30
0.0
 10
313.848368266446
 20
92.16895890162068
 30
0.0
 10
313.8430430417512
 20
92.16612840838985
 30
0.0
 10
313.8651700781742
 20
92.16430889986265
 30
0.0
 10
313.915836539987
 20
92.16476552983224
 30
0.0
 10
313.9866594918597
 20
92.16909199703244
 30
0.0
 10
314.0392777103157
 20
92.1737631215307
 30
0.0
 10
314.0607288691091
 20
92.1756674245705
 30
0.0
  0
ARC
  5
246
330
1F
100
AcDbEntity
  8
0
  6
Continuous
 62
     7
370
    25
100
AcDbCircle
 10
313.2911430285
 20
100.4135202907
 30
0.0
 40
8.273722391424569
100
AcDbArc
 50
275.3371203841
 51
284.7343039534
  0
LINE
  5
247
330
1F
100
AcDbEntity
  8
0
  6
Continuous
 62
     7
370
    25
100
AcDbLine
 10
315.3954569147
 20
92.4118738802
 30
0.0
 11
315.1075504264
 21
92.4118738802
 31
0.0
  0
ARC
  5
248
330
1F
100
AcDbEntity
  8
0
  6
Continuous
 62
     7
370
    25
100
AcDbCircle
 10
313.0032365402
 20
100.4135202907
 30
0.0
 40
8.273722391425201
100
AcDbArc
 50
275.3371203841
 51
284.7343039534
  0
SPLINE
  5
249
330
1F
100
AcDbEntity
  8
0
  6
Continuous
 62
     7
370
    25
100
AcDbSpline
210
0.0
220
0.0
230
1.0
 70
     8
 71
     3
 72
    12
 73
     8
 74
     0
 42
0.00000001
 43
0.00000001
 40
0.0
 40
0.0
 40
0.0
 40
0.0
 40
0.2136132332158009
 40
0.4276898210389377
 40
0.6408349231253154
 40
0.8535771958240942
 40
0.9999999999999999
 40
0.9999999999999999
 40
0.9999999999999999
 40
0.9999999999999999
 10
313.772822380784
 20
92.1756674245705
 30
0.0
 10
313.7398016871885
 20
92.17296608422163
 30
0.0
 10
313.6736886738614
 20
92.16755754396883
 30
0.0
 10
313.5730345210337
 20
92.16412633017173
 30
0.0
 10
313.4863758889585
 20
92.16481462781246
 30
0.0
 10
313.4270404103733
 20
92.16908407539968
 30
0.0
 10
313.4072293573092
 20
92.17376082735449
 30
0.0
 10
313.3991528762422
 20
92.1756674245705
 30
0.0
  0
ARC
  5
24A
330
1F
100
AcDbEntity
  8
0
  6
Continuous
 62
     7
370
    25
100
AcDbCircle
 10
313.7567787255
 20
93.2421407265
 30
0.0
 40
1.124838455819785
100
AcDbArc
 50
227.5715956445
 51
251.4618937031
  0
LINE
  5
24B
330
1F
100
AcDbEntity
  8
0
  6
Continuous
 62
     7
370
    25
100
AcDbLine
 10
312.9978857714
 20
92.4118738802
 30
0.0
 11
312.0402272446
 21
92.4118738802
 31
0.0
  0
ARC
  5
24C
330
1F
100
AcDbEntity
  8
0
  6
Continuous
 62
     7
370
    25
100
AcDbCircle
 10
312.7991201986
 20
93.2421407265
 30
0.0
 40
1.124838455821071
100
AcDbArc
 50
227.5715956445
 51
251.461893703
  0
SPLINE
  5
24D
330
1F
100
AcDbEntity
  8
0
  6
Continuous
 62
     7
370
    25
100
AcDbSpline
210
0.0
220
0.0
230
1.0
 70
     8
 71
     3
 72
    12
 73
     8
 74
     0
 42
0.00000001
 43
0.00000001
 40
0.0
 40
0.0
 40
0.0
 40
0.0
 40
0.213613233215803
 40
0.4276898210389407
 40
0.6408349231253182
 40
0.8535771958240992
 40
1.0
 40
1.0
 40
1.0
 40
1.0
 10
312.4414943494277
 20
92.1756674245705
 30
0.0
 10
312.4480108238634
 20
92.17296608422163
 30
0.0
 10
312.4610579078068
 20
92.16755754396883
 30
0.0
 10
312.437800053582
 20
92.16412633017173
 30
0.0
 10
312.385011279377
 20
92.16481462781246
 30
0.0
 10
312.3147106853742
 20
92.16908407539968
 30
0.0
 10
312.2620409136706
 20
92.1737608273545
 30
0.0
 10
312.2405687378809
 20
92.1756674245705
 30
0.0
  0
LINE
  5
24E
330
1F
100
AcDbEntity
  8
0
  6
Continuous
 62
     7
370
    25
100
AcDbLine
 10
304.1506488035
 20
145.7260864092
 30
0.0
 11
322.1506488035
 21
145.7260864092
 31
0.0
  0
LINE
  5
24F
330
1F
100
AcDbEntity
  8
0
  6
Continuous
 62
     7
370
    25
100
AcDbLine
 10
304.1506488035
 20
147.7260864092
 30
0.0
 11
322.1506488035
 21
147.7260864092
 31
0.0
  0
LINE
  5
250
330
1F
100
AcDbEntity
  8
0
  6
Continuous
 62
     7
370
    25
100
AcDbLine
 10
332.1506488035
 20
137.5260864092
 30
0.0
 11
332.1506488035
 21
138.7260864092
 31
0.0
  0
LINE
  5
251
330
1F
100
AcDbEntity
  8
0
  6
Continuous
 62
     7
370
    25
100
AcDbLine
 10
334.1506488035
 20
138.7260864092
 30
0.0
 11
334.1506488035
 21
137.5260864092
 31
0.0
  0
LINE
  5
252
330
1F
100
AcDbEntity
  8
0
  6
Continuous
 62
     7
370
    25
100
AcDbLine
 10
334.1506488035
 20
137.5260864092
 30
0.0
 11
332.1506488035
 21
137.5260864092
 31
0.0
  0
LINE
  5
253
330
1F
100
AcDbEntity
  8
0
  6
Continuous
 62
     7
370
    25
100
AcDbLine
 10
332.1506488035
 20
138.7260864092
 30
0.0
 11
334.1506488035
 21
138.7260864092
 31
0.0
  0
LINE
  5
254
330
1F
100
AcDbEntity
  8
0
  6
Continuous
 62
     7
370
    25
100
AcDbLine
 10
294.1506488035
 20
138.7260864092
 30
0.0
 11
294.1506488035
 21
137.5260864092
 31
0.0
  0
LINE
  5
255
330
1F
100
AcDbEntity
  8
0
  6
Continuous
 62
     7
370
    25
100
AcDbLine
 10
332.1506488035
 20
137.5260864092
 30
0.0
 11
294.1506488035
 21
137.5260864092
 31
0.0
  0
LINE
  5
256
330
1F
100
AcDbEntity
  8
0
  6
Continuous
 62
     7
370
    25
100
AcDbLine
 10
332.1506488035
 20
138.7260864092
 30
0.0
 11
294.1506488035
 21
138.7260864092
 31
0.0
  0
LINE
  5
257
330
1F
100
AcDbEntity
  8
0
  6
Continuous
 62
     7
370
    25
100
AcDbLine
 10
292.1506488035
 20
137.5260864092
 30
0.0
 11
292.1506488035
 21
138.7260864092
 31
0.0
  0
LINE
  5
258
330
1F
100
AcDbEntity
  8
0
  6
Continuous
 62
     7
370
    25
100
AcDbLine
 10
294.1506488035
 20
137.5260864092
 30
0.0
 11
292.1506488035
 21
137.5260864092
 31
0.0
  0
LINE
  5
259
330
1F
100
AcDbEntity
  8
0
  6
Continuous
 62
     7
370
    25
100
AcDbLine
 10
292.1506488035
 20
138.7260864092
 30
0.0
 11
294.1506488035
 21
138.7260864092
 31
0.0
  0
LINE
  5
25A
330
1F
100
AcDbEntity
  8
0
  6
Continuous
 62
     7
370
    25
100
AcDbLine
 10
310.1506488035
 20
136.7260864092
 30
0.0
 11
316.1506488035
 21
136.7260864092
 31
0.0
  0
LINE
  5
25B
330
1F
100
AcDbEntity
  8
0
  6
Continuous
 62
     7
370
    25
100
AcDbLine
 10
292.1506488035
 20
137.0260864092
 30
0.0
 11
292.1506488035
 21
137.5260864092
 31
0.0
  0
LINE
  5
25C
330
1F
100
AcDbEntity
  8
0
  6
Continuous
 62
     7
370
    25
100
AcDbLine
 10
334.1506488035
 20
137.0260864092
 30
0.0
 11
334.1506488035
 21
137.5260864092
 31
0.0
  0
LINE
  5
25D
330
1F
100
AcDbEntity
  8
0
  6
Continuous
 62
     7
370
    25
100
AcDbLine
 10
334.1506488035
 20
107.7260864092
 30
0.0
 11
315.1506488035
 21
107.7260864092
 31
0.0
  0
LINE
  5
25E
330
1F
100
AcDbEntity
  8
0
  6
Continuous
 62
     7
370
    25
100
AcDbLine
 10
311.1506488035
 20
107.7260864092
 30
0.0
 11
292.1506488035
 21
107.7260864092
 31
0.0
  0
LINE
  5
25F
330
1F
100
AcDbEntity
  8
0
  6
Continuous
 62
     7
370
    25
100
AcDbLine
 10
292.1506488035
 20
107.7260864092
 30
0.0
 11
292.1506488035
 21
109.4260864092
 31
0.0
  0
LINE
  5
260
330
1F
100
AcDbEntity
  8
0
  6
Continuous
 62
     7
370
    25
100
AcDbLine
 10
334.1506488035
 20
107.7260864092
 30
0.0
 11
334.1506488035
 21
109.4260864092
 31
0.0
  0
LINE
  5
261
330
1F
100
AcDbEntity
  8
0
  6
Continuous
 62
     7
370
    25
100
AcDbLine
 10
292.1506488035
 20
109.4260864092
 30
0.0
 11
292.1506488035
 21
137.0260864092
 31
0.0
  0
LINE
  5
262
330
1F
100
AcDbEntity
  8
0
  6
Continuous
 62
     7
370
    25
100
AcDbLine
 10
334.1506488035
 20
109.4260864092
 30
0.0
 11
334.1506488035
 21
137.0260864092
 31
0.0
  0
LINE
  5
263
330
1F
100
AcDbEntity
  8
0
  6
Continuous
 62
     8
370
    25
100
AcDbLine
 10
316.4086642689
 20
93.6066712194
 30
0.0
 11
316.5527126646
 21
93.6066712194
 31
0.0
  0
LINE
  5
264
330
1F
100
AcDbEntity
  8
0
  6
Continuous
 62
     8
370
    25
100
AcDbLine
 10
309.7485849424
 20
93.6066712194
 30
0.0
 11
316.4086642689
 21
93.6066712194
 31
0.0
  0
LINE
  5
265
330
1F
100
AcDbEntity
  8
0
  6
Continuous
 62
     8
370
    25
100
AcDbLine
 10
315.5091126124
 20
92.4695910172
 30
0.0
 11
315.6133886454
 21
92.4695910172
 31
0.0
  0
LINE
  5
266
330
1F
100
AcDbEntity
  8
0
  6
Continuous
 62
     8
370
    25
100
AcDbLine
 10
310.6879089616
 20
92.4695910172
 30
0.0
 11
315.5091126124
 21
92.4695910172
 31
0.0
  0
LINE
  5
267
330
1F
100
AcDbEntity
  8
0
  6
Continuous
 62
     8
370
    25
100
AcDbLine
 10
312.4414943494
 20
92.4118738802
 30
0.0
 11
312.4414943494
 21
92.1756674246
 31
0.0
  0
LINE
  5
268
330
1F
100
AcDbEntity
  8
0
  6
Continuous
 62
     8
370
    25
100
AcDbLine
 10
314.0607288691
 20
92.207644801
 30
0.0
 11
314.0607288691
 21
92.1756674246
 31
0.0
  0
LINE
  5
269
330
1F
100
AcDbEntity
  8
0
  6
Continuous
 62
     8
370
    25
100
AcDbLine
 10
312.5284752262
 20
92.4118738802
 30
0.0
 11
312.5284752262
 21
92.1756674246
 31
0.0
  0
LINE
  5
26A
330
1F
100
AcDbEntity
  8
0
  6
Continuous
 62
     8
370
    25
100
AcDbLine
 10
312.9021447307
 20
92.4118738802
 30
0.0
 11
312.9021447307
 21
92.1756674246
 31
0.0
  0
LINE
  5
26B
330
1F
100
AcDbEntity
  8
0
  6
Continuous
 62
     8
370
    25
100
AcDbLine
 10
334.1506488035
 20
137.0260864092
 30
0.0
 11
316.1506488035
 21
137.0260864092
 31
0.0
  0
LINE
  5
26C
330
1F
100
AcDbEntity
  8
0
  6
Continuous
 62
     8
370
    25
100
AcDbLine
 10
310.1506488035
 20
137.0260864092
 30
0.0
 11
292.1506488035
 21
137.0260864092
 31
0.0
  0
LINE
  5
26D
330
1F
100
AcDbEntity
  8
0
  6
Continuous
 62
     8
370
    25
100
AcDbLine
 10
334.1506488035
 20
109.4260864092
 30
0.0
 11
315.1506488035
 21
109.4260864092
 31
0.0
  0
LINE
  5
26E
330
1F
100
AcDbEntity
  8
0
  6
Continuous
 62
     8
370
    25
100
AcDbLine
 10
311.1506488035
 20
109.4260864092
 30
0.0
 11
292.1506488035
 21
109.4260864092
 31
0.0
  0
DIMENSION
  5
26F
330
1F
100
AcDbEntity
  8
004
100
AcDbDimension
  2
_D_6
 10
322.1506488035
 20
157.7260864092
 30
0.0
 11
313.0770136439
 21
157.7260864092
 31
0.0
 70
   160
  1
%%c<>
 71
     2
 42
-1.0
  3
SLDDIMSTYLE0
100
AcDbAlignedDimension
 13
304.1506488035
 23
147.7260864092
 33
0.0
 14
322.1506488035
 24
147.7260864092
 34
0.0
 50
0.0
100
AcDbRotatedDimension
  0
LINE
  5
27A
330
1F
100
AcDbEntity
  8
004
  6
CENTERX2
370
    18
100
AcDbLine
 10
313.1506488035
 20
156.2407440977
 30
0.0
 11
313.1506488035
 21
92.7260864092
 31
0.0
  0
LINE
  5
27B
330
1F
100
AcDbEntity
  8
0
  6
Continuous
 62
     7
370
    25
100
AcDbLine
 10
369.5953792432
 20
207.4935590591
 30
0.0
 11
369.5953792432
 21
237.4730203933
 31
0.0
  0
LINE
  5
27C
330
1F
100
AcDbEntity
  8
0
  6
Continuous
 62
     7
370
    25
100
AcDbLine
 10
365.5953792432
 20
235.163869545
 30
0.0
 11
365.5953792432
 21
207.4935590591
 31
0.0
  0
LINE
  5
27D
330
1F
100
AcDbEntity
  8
0
  6
Continuous
 62
     7
370
    25
100
AcDbLine
 10
364.1020809656
 20
207.3685830773
 30
0.0
 11
364.1998295785
 21
206.4580319366
 31
0.0
  0
LINE
  5
27E
330
1F
100
AcDbEntity
  8
0
  6
Continuous
 62
     7
370
    25
100
AcDbLine
 10
370.9909289078
 20
206.4580319366
 30
0.0
 11
371.0886775208
 21
207.3685830773
 31
0.0
  0
SPLINE
  5
27F
330
1F
100
AcDbEntity
  8
0
  6
Continuous
 62
     7
370
    25
100
AcDbSpline
210
0.0
220
0.0
230
1.0
 70
     8
 71
     3
 72
    26
 73
    22
 74
     0
 42
0.00000001
 43
0.00000001
 40
0.0
 40
0.0
 40
0.0
 40
0.0
 40
0.0135513700986138
 40
0.0644314618194661
 40
0.1148418057575231
 40
0.166209961479458
 40
0.2198051958324875
 40
0.2764101141134202
 40
0.3357555064723705
 40
0.3964790889756253
 40
0.4572176826250481
 40
0.5178664084420019
 40
0.5788031149300691
 40
0.6404523467219128
 40
0.703397811698688
 40
0.7680518617991
 40
0.8242524719431811
 40
0.877575955526084
 40
0.9286268134449998
 40
0.9783195839829656
 40
0.9999999999999999
 40
0.9999999999999999
 40
0.9999999999999999
 40
0.9999999999999999
 10
364.2095910992198
 20
206.458534921398
 30
0.0
 10
364.2108365319398
 20
206.4195685738284
 30
0.0
 10
364.2167580771534
 20
206.234298839668
 30
0.0
 10
364.3237717860758
 20
205.9162517915342
 30
0.0
 10
364.5209964908566
 20
205.5264008564836
 30
0.0
 10
364.8009957045608
 20
205.1774243811873
 30
0.0
 10
365.1516875805264
 20
204.8691904043548
 30
0.0
 10
365.5753335110392
 20
204.6055527713114
 30
0.0
 10
366.0658520067597
 20
204.3942124900291
 30
0.0
 10
366.6087252879602
 20
204.2442055117101
 30
0.0
 10
367.1834326240627
 20
204.1612342549354
 30
0.0
 10
367.7708159420161
 20
204.1471976726458
 30
0.0
 10
368.3559866469522
 20
204.2027708355174
 30
0.0
 10
368.9261326706565
 20
204.3294850557866
 30
0.0
 10
369.4686300247227
 20
204.5308364986105
 30
0.0
 10
369.9434768361509
 20
204.7984879535015
 30
0.0
 10
370.3334220601903
 20
205.11894092855
 30
0.0
 10
370.6331182127869
 20
205.4712552663096
 30
0.0
 10
370.8439040499217
 20
205.8588966301057
 30
0.0
 10
370.9640855018894
 20
206.1946169987537
 30
0.0
 10
370.9750447700091
 20
206.3998289971963
 30
0.0
 10
370.9783737721673
 20
206.462164472361
 30
0.0
  0
LINE
  5
280
330
1F
100
AcDbEntity
  8
0
  6
Continuous
 62
     7
370
    25
100
AcDbLine
 10
358.5953792432
 20
250.770222089
 30
0.0
 11
358.5953792432
 21
249.1371404653
 31
0.0
  0
LINE
  5
281
330
1F
100
AcDbEntity
  8
0
  6
Continuous
 62
     7
370
    25
100
AcDbLine
 10
376.5953792432
 20
249.1371404653
 30
0.0
 11
376.5953792432
 21
250.770222089
 31
0.0
  0
LINE
  5
282
330
1F
100
AcDbEntity
  8
0
  6
Continuous
 62
     7
370
    25
100
AcDbLine
 10
363.5953792432
 20
244.4828981355
 30
0.0
 11
363.5953792432
 21
243.4213547821
 31
0.0
  0
LINE
  5
283
330
1F
100
AcDbEntity
  8
0
  6
Continuous
 62
     7
370
    25
100
AcDbLine
 10
371.5953792432
 20
243.4213547821
 30
0.0
 11
371.5953792432
 21
244.4828981355
 31
0.0
  0
LINE
  5
284
330
1F
100
AcDbEntity
  8
0
  6
Continuous
 62
     7
370
    25
100
AcDbLine
 10
386.9194953823
 20
247.9522605626
 30
0.0
 11
386.9194953823
 21
248.9321095369
 31
0.0
  0
LINE
  5
285
330
1F
100
AcDbEntity
  8
0
  6
Continuous
 62
     7
370
    25
100
AcDbLine
 10
352.9568660873
 20
268.6100679065
 30
0.0
 11
323.2583812775
 21
251.4654975582
 31
0.0
  0
LINE
  5
286
330
1F
100
AcDbEntity
  8
0
  6
Continuous
 62
     7
370
    25
100
AcDbLine
 10
323.4026082043
 20
226.882453941
 30
0.0
 11
344.1257456463
 21
238.8456665422
 31
0.0
  0
LINE
  5
287
330
1F
100
AcDbEntity
  8
0
  6
Continuous
 62
     7
370
    25
100
AcDbLine
 10
304.7841960611
 20
238.6822332716
 30
0.0
 11
304.7841960611
 21
237.7023842974
 31
0.0
  0
LWPOLYLINE
  5
288
330
1F
100
AcDbEntity
  8
0
  6
Continuous
 62
     7
370
    25
100
AcDbPolyline
 90
       15
 70
   128
 43
0.0
 10
365.5953792432
 20
207.4935590591
 10
365.5954799671
 20
207.4819717352
 10
365.6583969515
 20
207.2060143726
 10
365.833884306
 20
206.946768062
 10
366.1117433434
 20
206.7192992566
 10
366.4758259066
 20
206.5368276166
 10
366.9049728403
 20
206.4099577305
 10
367.3742436846
 20
206.3460628149
 10
367.8563661238
 20
206.34885621
 10
368.3233209541
 20
206.4181755739
 10
368.7479704581
 20
206.549992317
 10
369.1056355503
 20
206.7366457295
 10
369.3755300354
 20
206.9672881935
 10
369.541968627
 20
207.2285156072
 10
369.5953792432
 20
207.4935590591
  0
ARC
  5
289
330
1F
100
AcDbEntity
  8
0
  6
Continuous
 62
     7
370
    25
100
AcDbCircle
 10
368.5120802719
 20
206.2929325717
 30
0.0
 40
3.057129508277225
100
AcDbArc
 50
44.8886219258
 51
69.2462845346
  0
LWPOLYLINE
  5
28A
330
1F
100
AcDbEntity
  8
0
  6
Continuous
 62
     7
370
    25
100
AcDbPolyline
 90
       28
 70
   128
 43
0.0
 10
365.5953792432
 20
209.1516917727
 10
365.2934391747
 20
209.0155715072
 10
364.8596690884
 20
208.7538311483
 10
364.5138269774
 20
208.4515846075
 10
364.2670284917
 20
208.1185463374
 10
364.1272059378
 20
207.7654204618
 10
364.0988533275
 20
207.4035567371
 10
364.1828819371
 20
207.0445857611
 10
364.3765910179
 20
206.7000451563
 10
364.6737546008
 20
206.3810087412
 10
365.0648216035
 20
206.0977306088
 10
365.5372228109
 20
205.8593155512
 10
366.0757748596
 20
205.6734264247
 10
366.6631682434
 20
205.5460378586
 10
367.2805236558
 20
205.4812442263
 10
367.9079987859
 20
205.4811280485
 10
368.5254260666
 20
205.5456930592
 10
369.1129608772
 20
205.6728640859
 10
369.6517193654
 20
205.8585537471
 10
370.1243853901
 20
206.0967938242
 10
370.5157670763
 20
206.3799270853
 10
370.8132850947
 20
206.6988533944
 10
371.0073769714
 20
207.0433221973
 10
371.0918044336
 20
207.4022619835
 10
371.0638539134
 20
207.7641361328
 10
370.9244237634
 20
208.1173137123
 10
370.6779953833
 20
208.4504433041
 10
370.6779953833
 20
208.4504433041
  0
LWPOLYLINE
  5
28B
330
1F
100
AcDbEntity
  8
0
  6
Continuous
 62
     7
370
    25
100
AcDbPolyline
 90
       30
 70
   128
 43
0.0
 10
358.5953792432
 20
249.1371404653
 10
358.5970013545
 20
249.0385013147
 10
358.6727122479
 20
248.4575049371
 10
358.8606308559
 20
247.8850553706
 10
359.1583939928
 20
247.3283515007
 10
359.5622571146
 20
246.7943942014
 10
360.067141408
 20
246.2898982958
 10
360.6666976602
 20
245.8212081124
 10
361.3533861033
 20
245.3942177023
 10
362.118571232
 20
245.0142967176
 10
362.952630399
 20
244.6862228852
 10
363.8450748266
 20
244.4141219238
 10
364.7846815082
 20
244.201415661
 10
365.7596343446
 20
244.0507790013
 10
366.7576727383
 20
243.9641062883
 10
367.7662457773
 20
243.9424874814
 10
368.7726700705
 20
243.9861944499
 10
369.7642892484
 20
244.0946775531
 10
370.7286331246
 20
244.2665725532
 10
371.6535745153
 20
244.4997177707
 10
372.5274817458
 20
244.7911812693
 10
373.3393649257
 20
245.1372977264
 10
374.0790141529
 20
245.5337145267
 10
374.7371279092
 20
245.9754464989
 10
375.3054300323
 20
246.4569386072
 10
375.7767737932
 20
246.972135809
 10
376.1452317707
 20
247.5145592005
 10
376.406170392
 20
248.0773874928
 10
376.5563082024
 20
248.6535427936
 10
376.5953792432
 20
249.1371404653
  0
LWPOLYLINE
  5
28C
330
1F
100
AcDbEntity
  8
0
  6
Continuous
 62
     7
370
    25
100
AcDbPolyline
 90
       57
 70
   128
 43
0.0
 10
373.0721872544
 20
254.8930658367
 10
372.2381280873
 20
255.2211396691
 10
371.3456836597
 20
255.4932406305
 10
370.4060769782
 20
255.7059468933
 10
369.4311241417
 20
255.856583553
 10
368.4330857481
 20
255.943256266
 10
367.4245127091
 20
255.9648750729
 10
366.4180884159
 20
255.9211681044
 10
365.426469238
 20
255.8126850012
 10
364.4621253618
 20
255.6407900011
 10
363.5371839711
 20
255.4076447836
 10
362.6632767406
 20
255.116181285
 10
361.8513935607
 20
254.7700648279
 10
361.1117443335
 20
254.3736480276
 10
360.4536305772
 20
253.9319160554
 10
359.8853284541
 20
253.4504239471
 10
359.4139846932
 20
252.9352267453
 10
359.0455267156
 20
252.3928033538
 10
358.7845880944
 20
251.8299750615
 10
358.634450284
 20
251.2538197607
 10
358.5970013545
 20
250.6715829385
 10
358.6727122479
 20
250.0905865609
 10
358.8606308559
 20
249.5181369944
 10
359.1583939928
 20
248.9614331245
 10
359.5622571146
 20
248.4274758252
 10
360.067141408
 20
247.9229799195
 10
360.6666976602
 20
247.4542897361
 10
361.3533861033
 20
247.027299326
 10
362.118571232
 20
246.6473783414
 10
362.952630399
 20
246.3193045089
 10
363.8450748266
 20
246.0472035476
 10
364.7846815082
 20
245.8344972847
 10
365.7596343446
 20
245.6838606251
 10
366.7576727383
 20
245.597187912
 10
367.7662457773
 20
245.5755691052
 10
368.7726700705
 20
245.6192760737
 10
369.7642892484
 20
245.7277591769
 10
370.7286331246
 20
245.899654177
 10
371.6535745153
 20
246.1327993945
 10
372.5274817458
 20
246.4242628931
 10
373.3393649257
 20
246.7703793502
 10
374.0790141529
 20
247.1667961505
 10
374.7371279092
 20
247.6085281227
 10
375.3054300323
 20
248.090020231
 10
375.7767737932
 20
248.6052174328
 10
376.1452317707
 20
249.1476408243
 10
376.406170392
 20
249.7104691166
 10
376.5563082024
 20
250.2866244174
 10
376.5937571319
 20
250.8688612396
 10
376.5180462384
 20
251.4498576172
 10
376.3301276305
 20
252.0223071837
 10
376.0323644935
 20
252.5790110536
 10
375.6285013718
 20
253.1129683529
 10
375.1236170784
 20
253.6174642586
 10
374.5240608262
 20
254.0861544419
 10
373.837372383
 20
254.5131448521
 10
373.0721872544
 20
254.8930658367
  0
LWPOLYLINE
  5
28D
330
1F
100
AcDbEntity
  8
0
  6
Continuous
 62
     7
370
    25
100
AcDbPolyline
 90
       20
 70
   128
 43
0.0
 10
363.1068372969
 20
253.5575708561
 10
362.7871442277
 20
253.6557413713
 10
362.4295563251
 20
253.6886678655
 10
362.0728237869
 20
253.6527822422
 10
361.7556041188
 20
253.5519732653
 10
361.512272994
 20
253.3971651519
 10
361.3691991156
 20
253.205133763
 10
361.3418867584
 20
252.9966886794
 10
361.43329564
 20
252.7944181602
 10
361.6335201897
 20
252.6202413546
 10
361.9208629708
 20
252.4930330224
 10
362.2641859345
 20
252.4265781599
 10
362.6262847102
 20
252.4280781829
 10
362.9679202773
 20
252.4973705404
 10
363.2520711208
 20
252.6269463305
 10
363.447945088
 20
252.8027640055
 10
363.5343161952
 20
253.0057709925
 10
363.5018247926
 20
253.2139683343
 10
363.353991828
 20
253.4047946185
 10
363.1068372969
 20
253.5575708561
  0
LWPOLYLINE
  5
28E
330
1F
100
AcDbEntity
  8
0
  6
Continuous
 62
     7
370
    25
100
AcDbPolyline
 90
       20
 70
   128
 43
0.0
 10
363.5953792432
 20
243.4213547821
 10
363.6417488371
 20
243.0707711283
 10
363.8012514804
 20
242.6900894822
 10
364.0699042715
 20
242.3304450074
 10
364.4399785586
 20
242.0021840206
 10
364.9008279785
 20
241.7147499927
 10
365.4391947322
 20
241.4764118774
 10
366.0395909886
 20
241.2940262283
 10
366.6847444405
 20
241.1728399485
 10
367.3560951976
 20
241.1163393466
 10
368.0343297211
 20
241.126149842
 10
368.6999364385
 20
241.2019892047
 10
369.3337670565
 20
241.3416756742
 10
369.9175874222
 20
241.5411907253
 10
370.4346020865
 20
241.794794673
 10
370.8699374791
 20
242.0951917936
 10
371.2110697931
 20
242.4337402089
 10
371.4481852732
 20
242.8007004973
 10
371.5744625385
 20
243.1855158794
 10
371.5953792432
 20
243.4213547821
  0
LINE
  5
28F
330
1F
100
AcDbEntity
  8
0
  6
Continuous
 62
     7
370
    25
100
AcDbLine
 10
353.80679701
 20
268.5259042206
 30
0.0
 11
324.1083122002
 21
251.3813338723
 31
0.0
  0
LINE
  5
290
330
1F
100
AcDbEntity
  8
0
  6
Continuous
 62
     7
370
    25
100
AcDbLine
 10
353.80679701
 20
268.5259042206
 30
0.0
 11
386.3337089446
 21
249.7485176487
 31
0.0
  0
ARC
  5
291
330
1F
100
AcDbEntity
  8
0
  6
Continuous
 62
     7
370
    25
100
AcDbCircle
 10
386.023854891
 20
248.9321095369
 30
0.0
 40
0.8732306336685373
100
AcDbArc
 50
290.7834207995
 51
69.2165792005
  0
LINE
  5
292
330
1F
100
AcDbEntity
  8
0
  6
Continuous
 62
     7
370
    25
100
AcDbLine
 10
386.3337089446
 20
248.115701425
 30
0.0
 11
359.4636512595
 21
232.6039473004
 31
0.0
  0
ARC
  5
293
330
1F
100
AcDbEntity
  8
0
  6
Continuous
 62
     7
370
    25
100
AcDbCircle
 10
358.0494376972
 20
235.3333694703
 30
0.0
 40
3.074043815823316
100
AcDbArc
 50
242.6096722366
 51
297.3903277634
  0
LINE
  5
294
330
1F
100
AcDbEntity
  8
0
  6
Continuous
 62
     7
370
    25
100
AcDbLine
 10
324.1083122002
 20
251.3813338723
 30
0.0
 11
356.6352241348
 21
232.6039473004
 31
0.0
  0
LWPOLYLINE
  5
295
330
1F
100
AcDbEntity
  8
0
  6
Continuous
 62
     7
370
    25
100
AcDbPolyline
 90
       47
 70
   128
 43
0.0
 10
340.9374535924
 20
253.912199019
 10
340.399263611
 20
254.2685138973
 10
339.9501314593
 20
254.6638157188
 10
339.5984236195
 20
255.0907407586
 10
339.3506917431
 20
255.5413362109
 10
339.2115506063
 20
256.0072083351
 10
339.1835921453
 20
256.4796788148
 10
339.2673371732
 20
256.9499464191
 10
339.4612256786
 20
257.4092509522
 10
339.7616458856
 20
257.8490364397
 10
340.163001534
 20
258.2611105102
 10
340.6578161275
 20
258.6377970032
 10
341.2368722066
 20
258.9720789623
 10
341.889383052
 20
259.2577293469
 10
342.6031936213
 20
259.4894270309
 10
343.3650069742
 20
259.6628559248
 10
344.1606319693
 20
259.7747853765
 10
344.9752476184
 20
259.8231303521
 10
345.7936791731
 20
259.8069902761
 10
346.6006808023
 20
259.7266658076
 10
347.3812195924
 20
259.5836532394
 10
348.1207555826
 20
259.3806166253
 10
348.8055126166
 20
259.121338153
 10
349.4227349666
 20
258.81064769
 10
349.960924948
 20
258.4543328117
 10
350.4100570997
 20
258.0590309902
 10
350.7617649395
 20
257.6321059504
 10
351.0094968159
 20
257.1815104981
 10
351.1486379526
 20
256.7156383739
 10
351.1765964137
 20
256.2431678942
 10
351.0928513858
 20
255.7729002899
 10
350.8989628804
 20
255.3135957568
 10
350.5985426734
 20
254.8738102693
 10
350.197187025
 20
254.4617361988
 10
349.7023724315
 20
254.0850497058
 10
349.1233163524
 20
253.7507677467
 10
348.470805507
 20
253.4651173621
 10
347.7569949377
 20
253.2334196781
 10
346.9951815848
 20
253.0599907842
 10
346.1995565897
 20
252.9480613325
 10
345.3849409406
 20
252.8997163569
 10
344.5665093858
 20
252.9158564329
 10
343.7595077567
 20
252.9961809014
 10
342.9789689666
 20
253.1391934696
 10
342.2394329764
 20
253.3422300837
 10
341.5546759424
 20
253.601508556
 10
340.9374535924
 20
253.912199019
  0
LINE
  5
296
330
1F
100
AcDbEntity
  8
0
  6
Continuous
 62
     7
370
    25
100
AcDbLine
 10
356.6352241348
 20
231.6240983262
 30
0.0
 11
356.6352241348
 21
232.6039473004
 31
0.0
  0
LINE
  5
297
330
1F
100
AcDbEntity
  8
0
  6
Continuous
 62
     7
370
    25
100
AcDbLine
 10
359.4636512595
 20
232.6039473004
 30
0.0
 11
359.4636512595
 21
231.6240983262
 31
0.0
  0
ARC
  5
298
330
1F
100
AcDbEntity
  8
0
  6
Continuous
 62
     7
370
    25
100
AcDbCircle
 10
358.0494376972
 20
234.3535204961
 30
0.0
 40
3.074043815823593
100
AcDbArc
 50
242.6096722366
 51
297.3903277634
  0
ARC
  5
299
330
1F
100
AcDbEntity
  8
0
  6
Continuous
 62
     7
370
    25
100
AcDbCircle
 10
323.9702959933
 20
250.2322801185
 30
0.0
 40
0.218354598714202
100
AcDbArc
 50
50.7967147643
 51
189.2140369905
  0
LINE
  5
29A
330
1F
100
AcDbEntity
  8
0
  6
Continuous
 62
     7
370
    25
100
AcDbLine
 10
323.7547588096
 20
227.660790112
 30
0.0
 11
323.7547588096
 21
250.1973165201
 31
0.0
  0
ARC
  5
29B
330
1F
100
AcDbEntity
  8
0
  6
Continuous
 62
     7
370
    25
100
AcDbCircle
 10
323.021932385
 20
227.5419138773
 30
0.0
 40
0.7424056356284872
100
AcDbArc
 50
230.7967147643
 51
9.2140369905
  0
LINE
  5
29C
330
1F
100
AcDbEntity
  8
0
  6
Continuous
 62
     7
370
    25
100
AcDbLine
 10
305.3699824988
 20
236.8859761855
 30
0.0
 11
322.5526772816
 21
226.9666176269
 31
0.0
  0
LINE
  5
29D
330
1F
100
AcDbEntity
  8
0
  6
Continuous
 62
     7
370
    25
100
AcDbLine
 10
305.3699824988
 20
237.8658251598
 30
0.0
 11
305.3699824988
 21
236.8859761855
 31
0.0
  0
LINE
  5
29E
330
1F
100
AcDbEntity
  8
0
  6
Continuous
 62
     7
370
    25
100
AcDbLine
 10
305.3699824988
 20
237.8658251598
 30
0.0
 11
322.5526772816
 21
227.9464666011
 31
0.0
  0
ARC
  5
29F
330
1F
100
AcDbEntity
  8
0
  6
Continuous
 62
     7
370
    25
100
AcDbCircle
 10
322.6906934885
 20
228.1156713807
 30
0.0
 40
0.2183545987143006
100
AcDbArc
 50
230.7967147643
 51
9.2140369904
  0
LINE
  5
2A0
330
1F
100
AcDbEntity
  8
0
  6
Continuous
 62
     7
370
    25
100
AcDbLine
 10
322.9062306722
 20
228.1506349791
 30
0.0
 11
322.9062306722
 21
250.6871613872
 31
0.0
  0
ARC
  5
2A1
330
1F
100
AcDbEntity
  8
0
  6
Continuous
 62
     7
370
    25
100
AcDbCircle
 10
323.6390570968
 20
250.8060376219
 30
0.0
 40
0.7424056356284204
100
AcDbArc
 50
50.7967147643
 51
189.2140369905
  0
LINE
  5
2A2
330
1F
100
AcDbEntity
  8
0
  6
Continuous
 62
     7
370
    25
100
AcDbLine
 10
324.1083122002
 20
250.4014848981
 30
0.0
 11
356.6352241348
 21
231.6240983262
 31
0.0
  0
LINE
  5
2A3
330
1F
100
AcDbEntity
  8
0
  6
Continuous
 62
     7
370
    25
100
AcDbLine
 10
386.3337089446
 20
247.1358524508
 30
0.0
 11
386.3337089446
 21
248.115701425
 31
0.0
  0
LINE
  5
2A4
330
1F
100
AcDbEntity
  8
0
  6
Continuous
 62
     7
370
    25
100
AcDbLine
 10
386.3337089446
 20
247.1358524508
 30
0.0
 11
359.4636512595
 21
231.6240983262
 31
0.0
  0
ARC
  5
2A5
330
1F
100
AcDbEntity
  8
0
  6
Continuous
 62
     7
370
    25
100
AcDbCircle
 10
385.9185812573
 20
248.0520733164
 30
0.0
 40
1.005878556987531
100
AcDbArc
 50
294.3746582936
 51
354.3052007488
  0
ARC
  5
2A6
330
1F
100
AcDbEntity
  8
0
  6
Continuous
 62
     7
370
    25
100
AcDbCircle
 10
353.3088329168
 20
267.8308059611
 30
0.0
 40
0.8550613010332876
100
AcDbArc
 50
54.3824225248
 51
114.3071190461
  0
LWPOLYLINE
  5
2A7
330
1F
100
AcDbEntity
  8
0
  6
Continuous
 62
     7
370
    25
100
AcDbPolyline
 90
       23
 70
   128
 43
0.0
 10
339.2404170221
 20
255.8714988674
 10
339.2673371732
 20
255.9700974448
 10
339.4612256786
 20
256.4294019779
 10
339.7616458856
 20
256.8691874655
 10
340.163001534
 20
257.2812615359
 10
340.6578161275
 20
257.657948029
 10
341.2368722066
 20
257.992229988
 10
341.889383052
 20
258.2778803726
 10
342.6031936213
 20
258.5095780566
 10
343.3650069742
 20
258.6830069506
 10
344.1606319693
 20
258.7949364023
 10
344.9752476184
 20
258.8432813778
 10
345.7936791731
 20
258.8271413018
 10
346.6006808023
 20
258.7468168333
 10
347.3812195924
 20
258.6038042652
 10
348.1207555826
 20
258.400767651
 10
348.8055126166
 20
258.1414891787
 10
349.4227349666
 20
257.8307987157
 10
349.960924948
 20
257.4744838374
 10
350.4100570997
 20
257.0791820159
 10
350.7617649395
 20
256.6522569761
 10
351.0094968159
 20
256.2016615238
 10
351.1197715368
 20
255.8714988674
  0
ARC
  5
2A8
330
1F
100
AcDbEntity
  8
0
  6
Continuous
 62
     7
370
    25
100
AcDbCircle
 10
305.6798365524
 20
238.6822332716
 30
0.0
 40
0.8732306336685107
100
AcDbArc
 50
110.7834207995
 51
249.2165792005
  0
LINE
  5
2A9
330
1F
100
AcDbEntity
  8
0
  6
Continuous
 62
     7
370
    25
100
AcDbLine
 10
322.9062306722
 20
249.62210197
 30
0.0
 11
305.3699824988
 21
239.4986413834
 31
0.0
  0
LWPOLYLINE
  5
2AA
330
1F
100
AcDbEntity
  8
0
  6
Continuous
 62
     7
370
    25
100
AcDbPolyline
 90
       14
 70
   128
 43
0.0
 10
322.9062306722
 20
233.6317107243
 10
322.8351271609
 20
233.6239699606
 10
322.3722857131
 20
233.5354319487
 10
321.9572895311
 20
233.3876616177
 10
321.6125111665
 20
233.1886253044
 10
321.35653771
 20
232.9490531079
 10
321.2031687571
 20
232.6818604275
 10
321.1606724676
 20
232.4014516896
 10
321.2313398276
 20
232.122943802
 10
321.4113611413
 20
231.8613511968
 10
321.6910314132
 20
231.6307763992
 10
322.0552735465
 20
231.4436497562
 10
322.4844511534
 20
231.3100593136
 10
322.9062306722
 20
231.2417117081
  0
LWPOLYLINE
  5
2AB
330
1F
100
AcDbEntity
  8
0
  6
Continuous
 62
     7
370
    25
100
AcDbPolyline
 90
       28
 70
   128
 43
0.0
 10
310.4611513233
 20
239.8252046282
 10
310.8436247451
 20
239.9997884235
 10
311.2855315759
 20
240.11874695
 10
311.763048504
 20
240.1756671227
 10
312.2504324684
 20
240.1674803603
 10
312.7214084732
 20
240.0946280133
 10
313.1505860801
 20
239.9610375707
 10
313.5148282134
 20
239.7739109277
 10
313.7944984853
 20
239.5433361301
 10
313.974519799
 20
239.281743525
 10
314.045187159
 20
239.0032356373
 10
314.0026908695
 20
238.7228268994
 10
313.8493219166
 20
238.455634219
 10
313.5933484601
 20
238.2160620226
 10
313.2485700955
 20
238.0170257093
 10
312.8335739135
 20
237.8692553782
 10
312.3707324657
 20
237.7807173663
 10
311.8849976544
 20
237.7561847806
 10
311.4025555691
 20
237.7969801791
 10
310.9494147873
 20
237.9009042714
 10
310.550004246
 20
238.0623544828
 10
310.2258562708
 20
238.2726269906
 10
309.9944457629
 20
238.5203859494
 10
309.8682481228
 20
238.7922746097
 10
309.8540666978
 20
239.0736353833
 10
309.9526660123
 20
239.3493000383
 10
310.1587305517
 20
239.6044074216
 10
310.4611513233
 20
239.8252046282
  0
LINE
  5
2AC
330
1F
100
AcDbEntity
  8
0
  6
Continuous
 62
     7
370
    25
100
AcDbLine
 10
322.7294539769
 20
244.9889859354
 30
0.0
 11
322.9062306722
 21
245.0781793252
 31
0.0
  0
LWPOLYLINE
  5
2AD
330
1F
100
AcDbEntity
  8
0
  6
Continuous
 62
     7
370
    25
100
AcDbPolyline
 90
        8
 70
   128
 43
0.0
 10
322.9062306722
 20
243.47107835
 10
322.7294539769
 20
243.5602717398
 10
322.4513463874
 20
243.7695020895
 10
322.276520648
 20
244.0131559924
 10
322.216890844
 20
244.2746288376
 10
322.276520648
 20
244.5361016828
 10
322.4513463874
 20
244.7797555857
 10
322.7294539769
 20
244.9889859354
  0
ARC
  5
2AE
330
1F
100
AcDbEntity
  8
0
  6
Continuous
 62
     7
370
    25
100
AcDbCircle
 10
322.9756217992
 20
230.4030594686
 30
0.0
 40
2.249872625094783
100
AcDbArc
 50
91.7674108603
 51
136.6746842243
  0
ARC
  5
2AF
330
1F
100
AcDbEntity
  8
0
  6
Continuous
 62
     7
370
    25
100
AcDbCircle
 10
311.9179110476
 20
236.3793826804
 30
0.0
 40
2.864117944587681
100
AcDbArc
 50
47.1170381221
 51
120.5722323807
  0
LWPOLYLINE
  5
2B0
330
1F
100
AcDbEntity
  8
0
  6
Continuous
 62
     7
370
    25
100
AcDbPolyline
 90
        3
 70
   128
 43
0.0
 10
310.0251992218
 20
238.4780516236
 10
310.1587305517
 20
238.6245584473
 10
310.4611513233
 20
238.8453556539
  0
ARC
  5
2B1
330
1F
100
AcDbEntity
  8
0
  6
Continuous
 62
     7
370
    25
100
AcDbCircle
 10
305.7851101861
 20
237.8021970512
 30
0.0
 40
1.00587855698749
100
AcDbArc
 50
185.6947992512
 51
245.6253417064
  0
LINE
  5
2B2
330
1F
100
AcDbEntity
  8
0
  6
Continuous
 62
     7
370
    25
100
AcDbLine
 10
322.7294539769
 20
244.0091369612
 30
0.0
 11
322.9062306722
 21
244.098330351
 31
0.0
  0
LWPOLYLINE
  5
2B3
330
1F
100
AcDbEntity
  8
0
  6
Continuous
 62
     7
370
    25
100
AcDbPolyline
 90
        3
 70
   128
 43
0.0
 10
322.4364445295
 20
243.7847043505
 10
322.4513463874
 20
243.7999066114
 10
322.7294539769
 20
244.0091369612
  0
LWPOLYLINE
  5
2B4
330
1F
100
AcDbEntity
  8
0
  6
Continuous
 62
     8
370
    25
100
AcDbPolyline
 90
       18
 70
   128
 43
0.0
 10
364.1998295785
 20
206.4580319366
 10
364.2193356371
 20
206.3370719665
 10
364.3539870109
 20
205.9830816044
 10
364.5990201094
 20
205.6494019257
 10
364.9460906246
 20
205.3473959915
 10
365.3833794862
 20
205.0873482519
 10
365.8959953465
 20
204.8781143205
 10
366.4664816872
 20
204.7268194081
 10
367.0754112802
 20
204.6386156814
 10
367.7020477586
 20
204.6165068126
 10
368.3250517686
 20
204.6612456926
 10
368.9232076559
 20
204.7713087925
 10
369.4761459392
 20
204.9429480456
 10
369.9650369684
 20
205.1703184828
 10
370.3732321458
 20
205.4456772767
 10
370.6868308743
 20
205.7596474137
 10
370.8951539253
 20
206.1015370175
 10
370.9909289078
 20
206.4580319366
  0
LINE
  5
2B5
330
1F
100
AcDbEntity
  8
0
  6
Continuous
 62
     8
370
    25
100
AcDbLine
 10
324.1083696673
 20
250.4014517231
 30
0.0
 11
323.7547588096
 21
250.1973165201
 31
0.0
  0
LINE
  5
2B6
330
1F
100
AcDbEntity
  8
0
  6
Continuous
 62
     8
370
    25
100
AcDbLine
 10
343.6276890086
 20
239.133188519
 30
0.0
 11
323.7547588096
 21
227.660790112
 31
0.0
  0
LINE
  5
2B7
330
1F
100
AcDbEntity
  8
0
  6
Continuous
 62
     8
370
    25
100
AcDbLine
 10
322.9062306675
 20
228.1505686264
 30
0.0
 11
322.5526772816
 21
227.9464666011
 31
0.0
  0
ENDSEC
  0
SECTION
  2
OBJECTS
  0
DICTIONARY
  5
C
330
0
100
AcDbDictionary
281
     1
  3
ACAD_GROUP
350
D
  3
ACAD_LAYOUT
350
1A
  3
ACAD_MLINESTYLE
350
17
  3
ACAD_PLOTSETTINGS
350
19
  3
ACAD_PLOTSTYLENAME
350
E
  3
ACAD_SCALELIST
350
47
  3
DWGPROPS
350
2B8
  0
DICTIONARY
  5
D
102
{ACAD_REACTORS
330
C
102
}
330
C
100
AcDbDictionary
281
     1
  0
DICTIONARY
  5
1A
102
{ACAD_REACTORS
330
C
102
}
330
C
100
AcDbDictionary
281
     1
  3
Layout1
350
1E
  3
Layout2
350
26
  3
Model
350
22
  0
DICTIONARY
  5
17
102
{ACAD_REACTORS
330
C
102
}
330
C
100
AcDbDictionary
281
     1
  3
Standard
350
18
  0
DICTIONARY
  5
19
102
{ACAD_REACTORS
330
C
102
}
330
C
100
AcDbDictionary
281
     1
  0
ACDBDICTIONARYWDFLT
  5
E
102
{ACAD_REACTORS
330
C
102
}
330
C
100
AcDbDictionary
281
     1
  3
Normal
350
F
100
AcDbDictionaryWithDefault
340
F
  0
DICTIONARY
  5
47
102
{ACAD_REACTORS
330
C
102
}
330
C
100
AcDbDictionary
281
     1
  3
A0
350
48
  3
A1
350
49
  3
A2
350
4A
  3
A3
350
4B
  3
A4
350
4C
  3
A5
350
4D
  3
A6
350
4E
  3
A7
350
4F
  3
A8
350
50
  3
A9
350
51
  3
B0
350
52
  3
B1
350
53
  3
B2
350
54
  3
B3
350
55
  3
B4
350
56
  3
B5
350
57
  3
B6
350
58
  3
B7
350
59
  3
B8
350
5A
  3
B9
350
5B
  3
C0
350
5C
  3
C1
350
5D
  3
C2
350
5E
  3
C3
350
5F
  3
C4
350
60
  3
C5
350
61
  3
C6
350
62
  3
C7
350
63
  3
C8
350
64
  3
C9
350
65
  3
D0
350
66
  3
D1
350
67
  3
D2
350
68
  0
XRECORD
  5
2B8
102
{ACAD_REACTORS
330
C
102
}
330
C
100
AcDbXrecord
280
     1
  1
DWGPROPS COOKIE
  2

  3

  4

  6

  7

  8
SNK13-CAD
  9

300
=
301
=
302
=
303
=
304
=
305
=
306
=
307
=
308
=
309
=
 40
0.0
 41
2459188.104069421
 42
2459188.104071956
  1

 90
        0
  0
LAYOUT
  5
1E
102
{ACAD_REACTORS
330
1A
102
}
330
1A
100
AcDbPlotSettings
  1

  2
none_device
  4

  6

 40
0.0
 41
0.0
 42
0.0
 43
0.0
 44
0.0
 45
0.0
 46
0.0
 47
0.0
 48
0.0
 49
0.0
140
0.0
141
0.0
142
1.0
143
1.0
 70
   688
 72
     1
 73
     0
 74
     5
  7

 75
    16
147
1.0
148
0.0
149
0.0
100
AcDbLayout
  1
Layout1
 70
     1
 71
     1
 10
0.0
 20
0.0
 11
420.0
 21
297.0
 12
0.0
 22
0.0
 32
0.0
 14
1.0000000000E+20
 24
1.0000000000E+20
 34
1.0000000000E+20
 15
-1.0000000000E+20
 25
-1.0000000000E+20
 35
-1.0000000000E+20
146
0.0
 13
0.0
 23
0.0
 33
0.0
 16
1.0
 26
0.0
 36
0.0
 17
0.0
 27
1.0
 37
0.0
 76
     0
330
1B
  0
LAYOUT
  5
26
102
{ACAD_REACTORS
330
1A
102
}
330
1A
100
AcDbPlotSettings
  1

  2
none_device
  4

  6

 40
0.0
 41
0.0
 42
0.0
 43
0.0
 44
0.0
 45
0.0
 46
0.0
 47
0.0
 48
0.0
 49
0.0
140
0.0
141
0.0
142
1.0
143
1.0
 70
   688
 72
     1
 73
     0
 74
     5
  7

 75
    16
147
1.0
148
0.0
149
0.0
100
AcDbLayout
  1
Layout2
 70
     1
 71
     2
 10
0.0
 20
0.0
 11
0.0
 21
0.0
 12
0.0
 22
0.0
 32
0.0
 14
0.0
 24
0.0
 34
0.0
 15
0.0
 25
0.0
 35
0.0
146
0.0
 13
0.0
 23
0.0
 33
0.0
 16
1.0
 26
0.0
 36
0.0
 17
0.0
 27
1.0
 37
0.0
 76
     0
330
23
  0
LAYOUT
  5
22
102
{ACAD_REACTORS
330
1A
102
}
330
1A
100
AcDbPlotSettings
  1

  2
none_device
  4
Letter_(8.50_x_11.00_Inches)
  6

 40
6.35
 41
6.35
 42
6.35000508
 43
6.35000508
 44
215.9
 45
279.4
 46
0.0
 47
0.0
 48
0.0
 49
0.0
140
0.0
141
0.0
142
1.0
143
1.0
 70
  1712
 72
     1
 73
     0
 74
     0
  7

 75
     0
147
1.0
148
0.0
149
0.0
100
AcDbLayout
  1
Model
 70
     1
 71
     0
 10
0.0
 20
0.0
 11
420.0
 21
297.0
 12
0.0
 22
0.0
 32
0.0
 14
0.0
 24
0.0
 34
0.0
 15
420.0
 25
297.0
 35
0.0
146
0.0
 13
0.0
 23
0.0
 33
0.0
 16
1.0
 26
0.0
 36
0.0
 17
0.0
 27
1.0
 37
0.0
 76
     0
330
1F
331
29
  0
MLINESTYLE
  5
18
102
{ACAD_REACTORS
330
17
102
}
330
17
100
AcDbMlineStyle
  2
Standard
 70
     0
  3

 62
   256
 51
90.0
 52
90.0
 71
     2
 49
0.5
 62
   256
  6
BYLAYER
 49
-0.5
 62
   256
  6
BYLAYER
  0
ACDBPLACEHOLDER
  5
F
102
{ACAD_REACTORS
330
E
102
}
330
E
  0
SCALE
  5
48
102
{ACAD_REACTORS
330
47
102
}
330
47
100
AcDbScale
 70
     0
300
1:1
140
1.0
141
1.0
290
     1
  0
SCALE
  5
49
102
{ACAD_REACTORS
330
47
102
}
330
47
100
AcDbScale
 70
     0
300
1:2
140
1.0
141
2.0
290
     0
  0
SCALE
  5
4A
102
{ACAD_REACTORS
330
47
102
}
330
47
100
AcDbScale
 70
     0
300
1:4
140
1.0
141
4.0
290
     0
  0
SCALE
  5
4B
102
{ACAD_REACTORS
330
47
102
}
330
47
100
AcDbScale
 70
     0
300
1:5
140
1.0
141
5.0
290
     0
  0
SCALE
  5
4C
102
{ACAD_REACTORS
330
47
102
}
330
47
100
AcDbScale
 70
     0
300
1:8
140
1.0
141
8.0
290
     0
  0
SCALE
  5
4D
102
{ACAD_REACTORS
330
47
102
}
330
47
100
AcDbScale
 70
     0
300
1:10
140
1.0
141
10.0
290
     0
  0
SCALE
  5
4E
102
{ACAD_REACTORS
330
47
102
}
330
47
100
AcDbScale
 70
     0
300
1:16
140
1.0
141
16.0
290
     0
  0
SCALE
  5
4F
102
{ACAD_REACTORS
330
47
102
}
330
47
100
AcDbScale
 70
     0
300
1:20
140
1.0
141
20.0
290
     0
  0
SCALE
  5
50
102
{ACAD_REACTORS
330
47
102
}
330
47
100
AcDbScale
 70
     0
300
1:30
140
1.0
141
30.0
290
     0
  0
SCALE
  5
51
102
{ACAD_REACTORS
330
47
102
}
330
47
100
AcDbScale
 70
     0
300
1:40
140
1.0
141
40.0
290
     0
  0
SCALE
  5
52
102
{ACAD_REACTORS
330
47
102
}
330
47
100
AcDbScale
 70
     0
300
1:50
140
1.0
141
50.0
290
     0
  0
SCALE
  5
53
102
{ACAD_REACTORS
330
47
102
}
330
47
100
AcDbScale
 70
     0
300
1:100
140
1.0
141
100.0
290
     0
  0
SCALE
  5
54
102
{ACAD_REACTORS
330
47
102
}
330
47
100
AcDbScale
 70
     0
300
2:1
140
2.0
141
1.0
290
     0
  0
SCALE
  5
55
102
{ACAD_REACTORS
330
47
102
}
330
47
100
AcDbScale
 70
     0
300
4:1
140
4.0
141
1.0
290
     0
  0
SCALE
  5
56
102
{ACAD_REACTORS
330
47
102
}
330
47
100
AcDbScale
 70
     0
300
8:1
140
8.0
141
1.0
290
     0
  0
SCALE
  5
57
102
{ACAD_REACTORS
330
47
102
}
330
47
100
AcDbScale
 70
     0
300
10:1
140
10.0
141
1.0
290
     0
  0
SCALE
  5
58
102
{ACAD_REACTORS
330
47
102
}
330
47
100
AcDbScale
 70
     0
300
100:1
140
100.0
141
1.0
290
     0
  0
SCALE
  5
59
102
{ACAD_REACTORS
330
47
102
}
330
47
100
AcDbScale
 70
     0
300
1/128" = 1'-0"
140
0.0078125
141
12.0
290
     0
  0
SCALE
  5
5A
102
{ACAD_REACTORS
330
47
102
}
330
47
100
AcDbScale
 70
     0
300
1/64" = 1'-0"
140
0.015625
141
12.0
290
     0
  0
SCALE
  5
5B
102
{ACAD_REACTORS
330
47
102
}
330
47
100
AcDbScale
 70
     0
300
1/32" = 1'-0"
140
0.03125
141
12.0
290
     0
  0
SCALE
  5
5C
102
{ACAD_REACTORS
330
47
102
}
330
47
100
AcDbScale
 70
     0
300
1/16" = 1'-0"
140
0.0625
141
12.0
290
     0
  0
SCALE
  5
5D
102
{ACAD_REACTORS
330
47
102
}
330
47
100
AcDbScale
 70
     0
300
3/32" = 1'-0"
140
0.09375
141
12.0
290
     0
  0
SCALE
  5
5E
102
{ACAD_REACTORS
330
47
102
}
330
47
100
AcDbScale
 70
     0
300
1/8" = 1'-0"
140
0.125
141
12.0
290
     0
  0
SCALE
  5
5F
102
{ACAD_REACTORS
330
47
102
}
330
47
100
AcDbScale
 70
     0
300
3/16" = 1'-0"
140
0.1875
141
12.0
290
     0
  0
SCALE
  5
60
102
{ACAD_REACTORS
330
47
102
}
330
47
100
AcDbScale
 70
     0
300
1/4" = 1'-0"
140
0.25
141
12.0
290
     0
  0
SCALE
  5
61
102
{ACAD_REACTORS
330
47
102
}
330
47
100
AcDbScale
 70
     0
300
3/8" = 1'-0"
140
0.375
141
12.0
290
     0
  0
SCALE
  5
62
102
{ACAD_REACTORS
330
47
102
}
330
47
100
AcDbScale
 70
     0
300
1/2" = 1'-0"
140
0.5
141
12.0
290
     0
  0
SCALE
  5
63
102
{ACAD_REACTORS
330
47
102
}
330
47
100
AcDbScale
 70
     0
300
3/4" = 1'-0"
140
0.75
141
12.0
290
     0
  0
SCALE
  5
64
102
{ACAD_REACTORS
330
47
102
}
330
47
100
AcDbScale
 70
     0
300
1" = 1'-0"
140
1.0
141
12.0
290
     0
  0
SCALE
  5
65
102
{ACAD_REACTORS
330
47
102
}
330
47
100
AcDbScale
 70
     0
300
1-1/2" = 1'-0"
140
1.5
141
12.0
290
     0
  0
SCALE
  5
66
102
{ACAD_REACTORS
330
47
102
}
330
47
100
AcDbScale
 70
     0
300
3" = 1'-0"
140
3.0
141
12.0
290
     0
  0
SCALE
  5
67
102
{ACAD_REACTORS
330
47
102
}
330
47
100
AcDbScale
 70
     0
300
6" = 1'-0"
140
6.0
141
12.0
290
     0
  0
SCALE
  5
68
102
{ACAD_REACTORS
330
47
102
}
330
47
100
AcDbScale
 70
     0
300
1'-0" = 1'-0"
140
12.0
141
12.0
290
     0
  0
ENDSEC
  0
EOF
